<?xml version="1.0" standalone="no"?>
<!DOCTYPE svg PUBLIC "-//W3C//DTD SVG 1.1//EN" "http://www.w3.org/Graphics/SVG/1.1/DTD/svg11.dtd" >
<svg>
<metadata>
Created by FontForge 20090622 at Wed Jan 18 16:48:42 2017
 By ffonts
\2512003 Prescott Design. All rights reserved.
</metadata>
<defs>
<font id="ClementePDai-Regular" horiz-adv-x="566" >
  <font-face 
    font-family="ClementePDai"
    font-weight="400"
    font-stretch="normal"
    units-per-em="1000"
    panose-1="0 0 0 0 0 0 0 0 0 0"
    ascent="800"
    descent="-200"
    x-height="517"
    cap-height="720"
    bbox="-313 -223 1049 944"
    underline-thickness="60"
    underline-position="6"
    unicode-range="U+000D-U+FB02"
  />
<missing-glyph horiz-adv-x="306" 
 />
    <glyph glyph-name=".notdef" horiz-adv-x="306" 
 />
    <glyph glyph-name="Eth" horiz-adv-x="609" 
d="M452 362q0 56 -13.5 103.5t-42 81.5t-72 53t-103.5 19h-47v-212h148v-71h-148v-235h44q59 0 103 20t73 55t43 82.5t14 103.5h1zM572 361q0 -84 -23 -150.5t-67.5 -113.5t-110 -72t-149.5 -25h-168v336h-59v71h59v313h204q82 0 141 -28t97.5 -76.5t57 -114t18.5 -140.5z
" />
    <glyph glyph-name="Eth" horiz-adv-x="609" 
d="M452 362q0 56 -13.5 103.5t-42 81.5t-72 53t-103.5 19h-47v-212h148v-71h-148v-235h44q59 0 103 20t73 55t43 82.5t14 103.5h1zM572 361q0 -84 -23 -150.5t-67.5 -113.5t-110 -72t-149.5 -25h-168v336h-59v71h59v313h204q82 0 141 -28t97.5 -76.5t57 -114t18.5 -140.5z
" />
    <glyph glyph-name="nonmarkingreturn" unicode="&#xd;" horiz-adv-x="0" 
 />
    <glyph glyph-name="space" unicode=" " horiz-adv-x="306" 
 />
    <glyph glyph-name="eth" unicode="&#xf0;" horiz-adv-x="589" 
d="M443 249q0 35 -9 67t-27.5 57t-46.5 39.5t-66 14.5t-66 -14.5t-46 -39.5t-27 -57t-9 -66q0 -35 8.5 -67.5t26.5 -58t46 -40.5t67 -15t67 15t46 40.5t26.5 57.5t8.5 67h1zM552 273q0 -60 -16.5 -112.5t-49 -91t-80.5 -60.5t-112 -22q-59 0 -106.5 18.5t-81 53t-51.5 82
t-18 106.5q0 54 16.5 100t47.5 80.5t75 54t100 19.5q35 0 70 -12t59 -35q-23 38 -56 75.5t-67 66.5l-91 -51l-44 47l82 45q-15 13 -30.5 24t-32.5 21l79 48q14 -7 36.5 -22.5t33.5 -25.5l87 49l46 -46l-81 -45q40 -37 73.5 -78t58.5 -86.5t39 -96t14 -106.5z" />
    <glyph glyph-name="Lslash" unicode="&#x141;" 
d="M566 124q0 -24 -4.5 -46t-17 -39.5t-36 -28t-62.5 -10.5h-392v234l-54 -38v77l54 38v409h120v-326l174 121v-77l-174 -121v-216h239q23 0 37 4.5t22 12.5t10.5 20t2.5 26l81 -40v0z" />
    <glyph glyph-name="lslash" unicode="&#x142;" horiz-adv-x="217" 
d="M163 403v-403h-109v318l-54 -45v64l54 44v339h109v-254l54 45v-64z" />
    <glyph glyph-name="Scaron" unicode="&#x160;" horiz-adv-x="615" 
d="M600 204q0 -60 -24 -102t-64 -68.5t-90.5 -38.5t-103.5 -12q-45 0 -98.5 11.5t-99.5 40.5t-77 78.5t-31 126.5h120q0 -46 15 -78t41 -52t61.5 -29t77.5 -9q28 0 55.5 6.5t49 21t35 37.5t13.5 56q0 34 -15 55t-42 34.5t-64 23l-81 20.5q-43 11 -86 23.5t-77.5 34t-56 55
t-21.5 86.5q0 58 23 98t60.5 65.5t85.5 37t97 11.5q55 0 104 -12t86 -38.5t59.5 -70t25.5 -106.5h-114q0 37 -13 63.5t-35 43t-51.5 24t-61.5 7.5q-25 0 -52 -5t-49.5 -17.5t-36.5 -33t-14 -51.5q0 -34 20 -55t52 -34.5t72 -23t82 -20.5q44 -11 84.5 -24.5t71 -36t49 -57
t18.5 -86.5zM355 778h-89l-118 144h83l80 -100l78 100h84z" />
    <glyph glyph-name="scaron" unicode="&#x161;" horiz-adv-x="503" 
d="M480 151q0 -47 -20 -78t-52.5 -50.5t-72.5 -27.5t-80 -8q-48 0 -90.5 10.5t-74 33t-50 57.5t-19.5 85h104q2 -59 37.5 -87t95.5 -28q19 0 39.5 4.5t37.5 14t28.5 25t11.5 37.5t-9.5 36.5t-28 24.5t-45 16.5t-60.5 13.5q-44 9 -80 20t-61.5 28t-39.5 42t-14 62
q0 35 16.5 62.5t44.5 46t66 28.5t82 10q42 0 81.5 -8t70 -27.5t49 -51t19.5 -77.5h-101q0 51 -34 75t-82 24q-32 0 -53 -8t-33 -19.5t-16.5 -24t-4.5 -22.5q0 -27 22.5 -43.5t53 -26.5t63.5 -16t54 -12q27 -8 53 -18t46.5 -26t33 -40t12.5 -58v1zM297 580h-89l-118 145h83
l80 -100l78 100h84z" />
    <glyph glyph-name="Yacute" unicode="&#xdd;" 
d="M512 538q0 -95 -42.5 -150t-126.5 -68v-320h-120v320q-85 13 -127 68.5t-42 149.5v182h120v-163q0 -30 4.5 -57t16.5 -47.5t33.5 -33t54.5 -12.5t54.5 12.5t33.5 33t16.5 47.5t4.5 57v163h120v-182v0zM268 775h-76l116 147h119z" />
    <glyph glyph-name="yacute" unicode="&#xfd;" horiz-adv-x="573" 
d="M519 4q0 -45 -11 -86.5t-39 -72.5t-74.5 -49.5t-117.5 -18.5q-42 0 -82.5 8t-73 27.5t-53.5 52t-25 80.5h108q6 -48 41.5 -74t80.5 -26q35 0 61 12t43 32.5t25 48.5t8 60v94q-26 -54 -70.5 -79.5t-104.5 -25.5q-83 0 -132 49t-49 132v349h109v-305q0 -29 6 -53.5
t19.5 -43t35.5 -29t53 -10.5q34 0 59 13t41.5 35t24.5 50.5t8 59.5v283h109v-513v0zM263 578h-76l115 147h120z" />
    <glyph glyph-name="Thorn" unicode="&#xde;" horiz-adv-x="568" 
d="M417 392q0 67 -40.5 95t-109.5 28h-93v-248h86q31 0 59.5 6.5t50.5 21.5t34.5 39t12.5 58zM531 397q0 -56 -18.5 -98t-52.5 -70t-80.5 -42t-101.5 -14h-104v-173h-120v720h120v-104h117q62 0 107 -18t74.5 -48.5t44 -70t14.5 -82.5z" />
    <glyph glyph-name="thorn" unicode="&#xfe;" horiz-adv-x="623" 
d="M477 252q0 39 -9 74t-29.5 62t-53 43t-80.5 16q-22 0 -47 -8t-46 -22t-35 -33.5t-14 -43.5v-149q0 -29 13 -51.5t34 -38.5t47.5 -24t53.5 -8q42 0 73.5 14t52 38.5t30.5 58t10 73.5v-1zM586 253q0 -57 -18.5 -105.5t-52 -84.5t-80 -56t-103.5 -20q-54 0 -97 19.5
t-72 54.5v-267h-109v926h109v-258q29 33 71.5 50t90.5 17q60 0 108.5 -21t82.5 -58.5t52 -88t18 -108.5z" />
    <glyph glyph-name="Zcaron" unicode="&#x17d;" horiz-adv-x="597" 
d="M602 124q0 -24 -4.5 -46t-17 -39.5t-36 -28t-62.5 -10.5h-470v99l421 519h-393v102h548v-93l-423 -526h284q23 0 37 4.5t22 12.5t10.5 20t2.5 26l81 -40v0zM354 778h-90l-118 144h84l79 -100l78 100h84z" />
    <glyph glyph-name="zcaron" unicode="&#x17e;" horiz-adv-x="482" 
d="M482 106q0 -20 -4 -39t-15.5 -34t-32 -24t-53.5 -9h-366v89l302 345h-278v83h415v-89l-299 -346h200q42 0 53.5 15.5t11.5 41.5l66 -33v0zM286 580h-89l-118 145h83l80 -100l78 100h84z" />
    <glyph glyph-name="onehalf" unicode="&#xbd;" horiz-adv-x="740" 
d="M723 73q0 -33 -14.5 -53t-54.5 -20h-247q-2 33 11 59.5t33.5 48t46.5 39.5t52 34q15 9 29 20t25.5 23t18.5 25t7 28q0 30 -19 48.5t-50 18.5q-44 0 -61 -29.5t-17 -72.5h-69q-2 75 36.5 118t110.5 43q28 0 53.5 -7t45 -22t31.5 -37.5t12 -52.5q0 -41 -23.5 -71t-55 -55
l-63.5 -48t-48 -48h124q22 0 27.5 8t4.5 28l54 -25v0zM151 0h-67l416 720h67zM128 324v330h-7q-20 0 -24 -9.5t-4 -26.5l-56 26q0 15 2.5 28.5t10.5 24t22 17t37 6.5h97v-396h-78z" />
    <glyph glyph-name="onequarter" unicode="&#xbc;" horiz-adv-x="712" 
d="M510 316l-117 -153h117v153zM675 174q0 -14 -2.5 -27t-10 -23.5t-21 -16.5t-35.5 -6h-21v-101h-75v101h-179v64l184 231h70v-233h9q19 0 23 9.5t4 26.5l54 -25v0zM151 0h-67l416 720h67zM128 324v330h-7q-20 0 -24 -9.5t-4 -26.5l-56 26q0 15 2.5 28.5t10.5 24t22 17
t37 6.5h97v-396h-78z" />
    <glyph glyph-name="onesuperior" unicode="&#xb9;" horiz-adv-x="260" 
d="M128 324v330h-7q-20 0 -24 -9.5t-4 -26.5l-56 26q0 15 2.5 28.5t10.5 24t22 17t37 6.5h97v-396h-78z" />
    <glyph glyph-name="threequarters" unicode="&#xbe;" horiz-adv-x="797" 
d="M595 316l-117 -153h117v153zM760 174q0 -14 -2.5 -27t-10 -23.5t-21 -16.5t-35.5 -6h-21v-101h-75v101h-179v64l184 231h70v-233h9q19 0 23 9.5t4 26.5l54 -25v0zM236 0h-67l416 720h67zM335 445q0 -30 -13 -53t-34 -38t-48 -23t-55 -8q-34 0 -64.5 9.5t-52 28.5t-33 48
t-8.5 68h69q-2 -48 20.5 -71.5t66.5 -23.5q32 0 54.5 18t22.5 50t-20.5 47.5t-52.5 15.5h-17v51h17q29 0 49.5 14t20.5 42q0 26 -22.5 40t-49.5 14q-36 0 -58 -21t-20 -61h-70q0 36 11 62t31 43.5t47.5 26t60.5 8.5q22 0 46.5 -6t44.5 -18.5t33.5 -32t13.5 -46.5
q0 -23 -11.5 -49t-37.5 -38q29 -11 44 -39.5t15 -57.5z" />
    <glyph glyph-name="threesuperior" unicode="&#xb3;" horiz-adv-x="366" 
d="M335 445q0 -30 -13 -53t-34 -38t-48 -23t-55 -8q-34 0 -64.5 9.5t-52 28.5t-33 48t-8.5 68h69q-2 -48 20.5 -71.5t66.5 -23.5q32 0 54.5 18t22.5 50t-20.5 47.5t-52.5 15.5h-17v51h17q29 0 49.5 14t20.5 42q0 26 -22.5 40t-49.5 14q-36 0 -58 -21t-20 -61h-70q0 36 11 62
t31 43.5t47.5 26t60.5 8.5q22 0 46.5 -6t44.5 -18.5t33.5 -32t13.5 -46.5q0 -23 -11.5 -49t-37.5 -38q29 -11 44 -39.5t15 -57.5z" />
    <glyph glyph-name="twosuperior" unicode="&#xb2;" horiz-adv-x="363" 
d="M346 402q0 -33 -14.5 -53t-54.5 -20h-247q-2 33 10.5 59.5t33.5 48.5t47 39.5l52 34.5q14 9 28.5 19.5t26 22.5t18.5 25.5t7 28.5q0 29 -19 47.5t-50 18.5q-44 0 -61 -28.5t-17 -73.5h-69q-2 75 36.5 118t110.5 43q28 0 53.5 -7t45 -22t31.5 -37.5t12 -52.5
q0 -41 -23.5 -71t-55 -55l-63.5 -48t-48 -48h124q22 0 27 8.5t5 27.5l54 -25v0z" />
    <glyph glyph-name="brokenbar" unicode="&#xa6;" horiz-adv-x="195" 
d="M54 0v268h87v-268h-87zM54 452v268h87v-267z" />
    <glyph glyph-name="minus" unicode="&#x2212;" horiz-adv-x="595" 
d="M45 317v86h505v-86h-505z" />
    <glyph glyph-name="multiply" unicode="&#xd7;" horiz-adv-x="453" 
d="M392 134l-166 166l-165 -166l-61 61l166 165l-166 166l61 60l165 -166l166 167l61 -61l-166 -166l166 -165z" />
    <glyph glyph-name="exclam" unicode="!" horiz-adv-x="217" 
d="M180 51q0 -14 -6 -26t-16 -20t-23 -12.5t-26 -4.5q-27 0 -49.5 17t-22.5 46q0 28 22.5 45.5t48.5 17.5q27 0 49.5 -17t22.5 -46zM138 155h-59l-35 565h129z" />
    <glyph glyph-name="quotedbl" unicode="&#x22;" horiz-adv-x="335" 
d="M54 418v302h86v-302h-86zM194 418v302h87v-302h-87z" />
    <glyph glyph-name="numbersign" unicode="#" horiz-adv-x="536" 
d="M216 420l-16 -120h120l16 120h-120zM526 420h-120l-16 -120h120l-10 -68h-120l-33 -232h-70l33 232h-120l-33 -232h-70l33 231h-120l10 69h120l16 120h-120l10 68h120l33 232h70l-33 -232h120l33 232h70l-33 -231h120z" />
    <glyph glyph-name="dollar" unicode="$" horiz-adv-x="503" 
d="M480 252q0 -42 -17 -71.5t-44.5 -48.5t-62.5 -29t-71 -12v-91h-69v91q-42 4 -78 16.5t-61.5 35t-40.5 55.5t-15 77h104q2 -60 37.5 -87.5t95.5 -27.5q19 0 39.5 4.5t37.5 14t28.5 25t11.5 37.5t-9.5 36.5t-28 24.5t-45 16.5t-60.5 13.5q-44 9 -80 20t-61.5 28t-39.5 42
t-14 62q0 62 48.5 101t130.5 44v91h68v-91q37 -3 70 -13.5t57.5 -30t39 -48.5t15.5 -70h-101q0 51 -34 75t-82 24q-32 0 -53 -8t-33 -19.5t-16.5 -24.5t-4.5 -23q0 -27 22.5 -43.5t53 -26t63.5 -15.5t54 -12q27 -8 53 -18t46.5 -26t33 -40t12.5 -58z" />
    <glyph glyph-name="percent" unicode="%" horiz-adv-x="750" 
d="M638 167q0 26 -4.5 49.5t-15 41t-28 28t-43.5 10.5t-43 -10.5t-27.5 -28.5t-14.5 -41t-4 -48q0 -24 4.5 -47t14.5 -40.5t27 -28.5t43 -11q25 0 42.5 11t28 28.5t15 40.5t4.5 47zM713 168q0 -38 -10 -71t-31 -57t-52 -38t-73 -14q-43 0 -74 14t-51 38.5t-29.5 57
t-9.5 69.5q0 40 10 73.5t30.5 57.5t51.5 37.5t72 13.5q42 0 73 -13.5t52 -37.5t31 -57t10 -73zM292 538q0 26 -4.5 49.5t-15 41t-28 28t-43.5 10.5t-43 -10.5t-27.5 -28.5t-14.5 -41t-4 -48q0 -24 4.5 -47t14.5 -40.5t27 -28.5t43 -11q25 0 42.5 11t28 28.5t15.5 40.5t5 47
v-1zM194 0h-67l396 667h-204q24 -22 36 -54.5t12 -73.5q0 -38 -10 -71t-31 -57t-52 -38t-73 -14q-43 0 -74 14t-51 38.5t-29.5 57t-9.5 69.5q0 40 10 73.5t30.5 57.5t51.5 37.5t72 13.5h389v-53z" />
    <glyph glyph-name="ampersand" unicode="&#x26;" horiz-adv-x="759" 
d="M759 372q0 -23 -4 -44t-16.5 -37.5t-35 -26.5t-58.5 -10h-27q6 -68 -16 -118t-64.5 -83t-101 -49t-125.5 -16q-55 0 -107.5 13.5t-93.5 41t-66 68.5t-25 95q0 31 9 62t26.5 56.5t43.5 42t60 19.5q-32 4 -55 21t-37.5 40t-21.5 50.5t-7 52.5q0 47 22.5 81t58 56.5t78 33.5
t82.5 11q57 0 105 -15t82.5 -45.5t54 -75.5t19.5 -105h-104q1 36 -10 64.5t-31 48.5t-49 31t-64 11q-25 0 -50.5 -7t-45.5 -21t-33 -35.5t-13 -49.5q0 -30 11.5 -51.5t31 -35.5t44.5 -21t51 -7h21v-74h-20q-31 0 -57.5 -8t-46 -24t-30.5 -40t-11 -57t17 -58.5t43 -43
t58.5 -27t63.5 -9.5q42 0 79 12t64.5 35t42.5 56t13 74h-35q-45 0 -57.5 -16.5t-12.5 -44.5l-76 38q0 22 4 43.5t16.5 38t35 26.5t59.5 10h166q44 0 56.5 16.5t12.5 44.5l76 -38v0z" />
    <glyph glyph-name="quotesingle" unicode="'" horiz-adv-x="195" 
d="M54 418v302h87v-302h-87z" />
    <glyph glyph-name="parenleft" unicode="(" horiz-adv-x="245" 
d="M150 -206q-56 114 -84.5 225t-28.5 239q0 244 112 462h96q-51 -112 -77 -225.5t-26 -236.5q0 -125 26 -238.5t77 -225.5h-95z" />
    <glyph glyph-name="parenright" unicode=")" horiz-adv-x="245" 
d="M208 256q0 -244 -112 -462h-96q51 112 77 225.5t26 236.5q0 125 -26 238.5t-77 225.5h95q56 -114 84.5 -225t28.5 -239z" />
    <glyph glyph-name="asterisk" unicode="*" horiz-adv-x="360" 
d="M229 527l86 -106l-61 -44l-74 115l-74 -115l-60 44l86 106l-132 35l23 71l127 -49l-7 136h75l-8 -136l127 49l23 -71z" />
    <glyph glyph-name="plus" unicode="+" horiz-adv-x="595" 
d="M341 317v-210h-87v210h-209v86h209v210h86v-210h210v-86h-209z" />
    <glyph glyph-name="comma" unicode="," horiz-adv-x="226" 
d="M75 -153l-75 43l151 261l75 -43z" />
    <glyph glyph-name="hyphen" unicode="-" horiz-adv-x="334" 
d="M45 221v93h244v-92z" />
    <glyph glyph-name="period" unicode="." horiz-adv-x="217" 
d="M180 51q0 -14 -6 -26t-16 -20t-23 -12.5t-26 -4.5q-27 0 -49.5 17t-22.5 46q0 28 22.5 45.5t48.5 17.5q27 0 49.5 -17t22.5 -46z" />
    <glyph glyph-name="slash" unicode="/" horiz-adv-x="378" 
d="M86 0h-86l292 720h86z" />
    <glyph glyph-name="zero" unicode="0" horiz-adv-x="657" 
d="M499 360q0 42 -6.5 91.5t-25.5 93t-52 72.5t-87 29t-88 -29t-53 -72t-25.5 -93t-6.5 -92t6.5 -91.5t25.5 -93t52 -72.5t87 -29t88 29t52.5 72t25 93t6.5 92h1zM604 360q0 -64 -15.5 -130t-48.5 -120t-85.5 -88t-127.5 -34t-127.5 34t-85.5 88t-48.5 120t-15.5 130
t15.5 130t48.5 120t85.5 88t126.5 34q75 0 128 -34t86 -87.5t48.5 -120t15.5 -130.5z" />
    <glyph glyph-name="one" unicode="1" horiz-adv-x="657" 
d="M273 0v619h-12q-23 0 -37 -4.5t-22 -13t-10.5 -20t-2.5 -25.5l-81 40q0 24 4.5 46t17 39.5t36 28t62.5 10.5h165v-720h-120z" />
    <glyph glyph-name="two" unicode="2" horiz-adv-x="657" 
d="M606 118q0 -27 -5.5 -48.5t-18.5 -37t-35.5 -24t-55.5 -8.5h-438q-3 56 20 102t60.5 84.5t84 71.5l90.5 62q27 18 53.5 38.5t48 43.5t35 49.5t13.5 56.5q0 60 -37 97.5t-99 37.5q-43 0 -72.5 -16t-47 -42t-25 -60.5t-7.5 -71.5h-104q-2 63 14.5 114.5t49.5 88t81.5 56.5
t110.5 20q49 0 94 -13t79 -39.5t54 -66t20 -93.5q0 -40 -13.5 -75.5t-37 -66.5t-54 -58t-63.5 -51l-59.5 -42.5t-56 -43t-47.5 -43.5t-33 -45h255q43 0 56.5 16t13.5 45l76 -38v0z" />
    <glyph glyph-name="three" unicode="3" horiz-adv-x="657" 
d="M596 207q0 -54 -22.5 -94.5t-59 -68.5t-83.5 -42t-96 -14q-61 0 -114 17t-91.5 50t-58.5 83t-14 116h105q-5 -83 40 -130t128 -47q31 0 58.5 9.5t48.5 27t33 43t12 58.5t-11 57t-30.5 40t-46 24t-56.5 8h-20v73h20q27 0 52 7t44.5 21t31 36t11.5 51t-13 50.5t-33 35.5
t-45.5 21t-50.5 7q-35 0 -64 -11t-49.5 -31t-31.5 -48.5t-9 -64.5h-104q0 60 19 105t53.5 75.5t82.5 45.5t105 15q40 0 83 -11t78.5 -33.5t58 -56.5t22.5 -81q0 -25 -7 -52.5t-21.5 -50.5t-37.5 -39.5t-55 -20.5q34 -3 59.5 -20t43 -42.5t26.5 -56t9 -61.5z" />
    <glyph glyph-name="four" unicode="4" horiz-adv-x="657" 
d="M359 611l-248 -327h248v327zM637 307q0 -22 -4.5 -43t-17 -37.5t-35 -26.5t-58.5 -10h-49v-190h-114v189h-327v106l329 425h112v-436h18q44 0 57 16.5t13 44.5l76 -38v0z" />
    <glyph glyph-name="five" unicode="5" horiz-adv-x="657" 
d="M545 564q1 37 -17 49t-53 12h-252l-50 -231q32 37 78 54t94 17q53 0 96 -17t73 -48t46.5 -74.5t16.5 -95.5q0 -60 -22 -105t-59.5 -75.5t-87.5 -46t-105 -15.5q-51 0 -100.5 14t-87.5 42t-60 71t-19 102h108q4 -72 49 -106t113 -34q35 0 64.5 11t51 31t33.5 49t12 64
q0 72 -43.5 114.5t-114.5 42.5q-45 0 -83.5 -17.5t-61.5 -57.5h-106l79 406h369q61 0 88 -29.5t27 -88.5z" />
    <glyph glyph-name="six" unicode="6" horiz-adv-x="657" 
d="M507 244q0 35 -13.5 65.5t-36.5 52.5t-54 34.5t-65 12.5q-35 0 -65 -13t-52.5 -35t-35.5 -52.5t-13 -64.5q0 -35 12.5 -65.5t35 -53t52.5 -35.5t65 -13t66 13t54 35.5t36.5 53t13.5 65.5zM609 246q0 -60 -21 -107.5t-57.5 -81t-86 -51.5t-106.5 -18q-72 0 -130 29.5
t-94 81.5q-34 49 -46 111t-12 127q0 72 15 142.5t50 126.5t91.5 91t140.5 35q38 0 76.5 -8t71.5 -28l-61 -70q-20 14 -43 19t-46 5q-54 0 -90 -26t-58 -66t-31.5 -88t-10.5 -92q0 -2 -0.5 -8t-0.5 -8q28 59 83 91t122 32q51 0 95.5 -18t77.5 -50t52 -75.5t19 -95.5z" />
    <glyph glyph-name="seven" unicode="7" horiz-adv-x="657" 
d="M372 0h-124l206 625h-249q-44 0 -57 -16.5t-13 -44.5l-75 38q0 22 4 43.5t16.5 38t35 26.5t58.5 10h404v-95z" />
    <glyph glyph-name="eight" unicode="8" horiz-adv-x="657" 
d="M483 212q0 33 -12 60t-33 46t-49 29t-60 10t-60.5 -10t-49.5 -29t-33 -46t-12 -60q0 -32 13 -57.5t34 -43.5t49 -28t58 -10t58 10t49.5 28t34.5 43.5t13 57.5zM453 539q0 27 -10 48.5t-27 36t-40 22t-48 7.5q-51 0 -87 -30t-36 -84q0 -26 10 -46t27 -34.5t39 -22t46 -7.5
q25 0 47.5 7.5t39.5 21.5t27.5 34.5t10.5 46.5h1zM592 211q0 -54 -22.5 -96t-60 -70t-85 -42.5t-96.5 -14.5q-51 0 -98 14t-84 42t-59 69.5t-22 97.5q0 73 40 121t108 64q-52 17 -79.5 58t-27.5 96q0 46 19.5 80t51 56.5t71 34t80.5 11.5q40 0 80.5 -11.5t72 -34.5t51.5 -57
t20 -79q0 -53 -28.5 -95.5t-78.5 -58.5q33 -7 60 -24t46.5 -41.5t30 -55t10.5 -64.5z" />
    <glyph glyph-name="nine" unicode="9" horiz-adv-x="657" 
d="M488 476q0 35 -12.5 65.5t-35 53t-52.5 35.5t-65 13t-66 -13t-54 -35.5t-36.5 -53t-13.5 -65.5t13.5 -65.5t36.5 -52.5t54 -34.5t66 -12.5q34 0 64 13t52.5 35t35.5 52t13 65zM604 383q0 -72 -15 -142.5t-50 -126.5t-91.5 -91t-140.5 -35q-38 0 -76.5 8t-71.5 28l61 69
q20 -13 43 -18t46 -5q54 0 90 26t58 66t31 88t11 92q0 2 0.5 8t0.5 8q-28 -59 -83 -91t-122 -32q-51 0 -95.5 18t-77.5 50t-52 75.5t-19 95.5q0 60 21 107.5t57.5 81t86 51.5t107.5 18q72 0 129.5 -30t93.5 -81q34 -49 46 -111t12 -127z" />
    <glyph glyph-name="colon" unicode=":" horiz-adv-x="217" 
d="M180 51q0 -14 -6 -26t-16 -20t-23 -12.5t-26 -4.5q-27 0 -49.5 17t-22.5 46q0 28 22.5 45.5t48.5 17.5q27 0 49.5 -17t22.5 -46zM180 465q0 -14 -6 -26t-16 -20t-23 -12.5t-26 -4.5q-27 0 -49.5 17t-22.5 46q0 28 22.5 45.5t48.5 17.5q27 0 49.5 -17t22.5 -46z" />
    <glyph glyph-name="semicolon" unicode=";" horiz-adv-x="217" 
d="M75 -153l-75 43l151 261l75 -43zM180 465q0 -14 -6 -26t-16 -20t-23 -12.5t-26 -4.5q-27 0 -49.5 17t-22.5 46q0 28 22.5 45.5t48.5 17.5q27 0 49.5 -17t22.5 -46z" />
    <glyph glyph-name="less" unicode="&#x3c;" horiz-adv-x="597" 
d="M45 322v75l507 224v-91l-382 -170l382 -170v-91z" />
    <glyph glyph-name="equal" unicode="=" horiz-adv-x="595" 
d="M45 208v87h505v-87h-505zM45 425v87h505v-86z" />
    <glyph glyph-name="greater" unicode="&#x3e;" horiz-adv-x="597" 
d="M45 99v91l381 170l-381 170v91l507 -223v-75z" />
    <glyph glyph-name="question" unicode="?" horiz-adv-x="553" 
d="M342 51q0 -29 -22.5 -46t-49.5 -17q-13 0 -26 4.5t-23 12.5t-16 20t-6 26q0 28 22.5 45.5t48.5 17.5q27 0 49.5 -17t22.5 -46zM516 545q1 -42 -10.5 -70t-29.5 -48t-38.5 -34l-38.5 -27q-23 -17 -38 -32t-23.5 -31.5t-12 -36.5t-3.5 -47v-77h-103v77q0 25 2.5 50.5t11 50
t25 48.5t45.5 45l25 16t31.5 25t27.5 35.5t12 47.5q0 48 -32.5 73.5t-84.5 25.5q-34 0 -59 -11.5t-41.5 -32t-24 -48t-5.5 -60.5h-115q0 49 15 94t45.5 79t77 54t109.5 20q57 0 100.5 -15.5t72.5 -41t44 -59t15 -70.5z" />
    <glyph glyph-name="at" unicode="@" horiz-adv-x="800" 
d="M522 415q-5 39 -34.5 61.5t-69.5 22.5q-34 0 -62 -18t-48.5 -45.5t-31.5 -60.5t-11 -64q0 -21 6.5 -39.5t19 -32.5t30 -22t38.5 -8q42 0 72 21t47 58l21.5 61zM763 429q0 -72 -29 -133q-17 -38 -47.5 -71.5t-70.5 -56.5q-22 -13 -46 -21t-48 -8q-22 0 -39.5 11t-20.5 34
q-1 6 0 13q-22 -32 -53.5 -45t-67.5 -13q-35 0 -63.5 13t-48.5 35.5t-31 52t-11 63.5q0 47 16 94.5t46 85.5t72 62t93 24q40 0 76.5 -18t54.5 -56l18 56h58l-75 -239q-6 -19 -11 -39t-5 -40q0 -14 7 -23.5t21 -9.5q16 0 30 6t26 15q22 16 38.5 38t27 48t15.5 53.5t5 53.5
q0 63 -22 111t-60.5 80.5t-90 49t-110.5 16.5q-66 0 -124 -23.5t-101 -64.5t-68 -98t-25 -124q0 -69 23.5 -126.5t65.5 -99t100 -64t127 -22.5q73 0 137.5 28t112.5 82h69q-54 -84 -137.5 -127.5t-181.5 -43.5q-82 0 -151.5 27t-119.5 76.5t-78.5 118t-28.5 151.5
q0 82 29 150.5t80.5 117.5t121 76t150.5 27q68 0 130.5 -20t110 -58.5t76 -95t28.5 -129.5z" />
    <glyph glyph-name="A" unicode="A" 
d="M392 492q0 30 -4.5 57t-16.5 48t-33.5 33t-54.5 12t-54.5 -12.5t-33.5 -33t-16.5 -47.5t-4.5 -56v-85h218v84zM392 0v313h-218v-313h-120v511q0 112 58.5 169t170.5 57q114 0 171.5 -57.5t57.5 -168.5v-511h-120z" />
    <glyph glyph-name="B" unicode="B" 
d="M409 217q0 61 -40 90t-100 29h-95v-241h89q29 0 55.5 6.5t46.5 21.5t32 38t12 56zM386 520q0 54 -36.5 79.5t-91.5 25.5h-84v-213h84q26 0 49.5 6.5t41 20t27.5 33.5t10 48zM529 207q0 -52 -20 -91t-53.5 -64.5t-77.5 -38.5t-91 -13h-233v720h231q43 0 82 -10.5t68.5 -32
t47 -55.5t17.5 -81q0 -58 -32.5 -99t-87.5 -55q69 -12 109 -60.5t40 -119.5z" />
    <glyph glyph-name="C" unicode="C" horiz-adv-x="732" 
d="M695 280q-5 -66 -30 -120.5t-66 -93.5t-97 -61t-122 -22q-81 0 -144.5 29.5t-108 80.5t-67.5 119t-23 145q0 79 23.5 148.5t68 121t109.5 81t148 29.5q58 0 112 -17t96 -50t69 -81t32 -109h-118q-4 36 -21.5 65.5t-44.5 50t-60 31.5t-68 11q-59 0 -101.5 -24.5t-70 -64.5
t-41 -90t-13.5 -102q0 -50 13 -99t40 -88t68 -63.5t98 -24.5q46 0 80.5 15t59.5 42t40 63t21 78h118v0z" />
    <glyph glyph-name="D" unicode="D" horiz-adv-x="609" 
d="M452 362q0 56 -13.5 103.5t-42 81.5t-72 53t-103.5 19h-47v-518h44q59 0 103 20t73 55t43 82.5t14 103.5h1zM572 361q0 -84 -23 -150.5t-67.5 -113.5t-110 -72t-149.5 -25h-168v720h204q82 0 141 -28t97.5 -76.5t57 -114t18.5 -140.5z" />
    <glyph glyph-name="E" unicode="E" 
d="M54 0v720h460v-101h-340v-211h309v-95h-309v-211h347v-102h-467z" />
    <glyph glyph-name="F" unicode="F" 
d="M174 619v-211h309v-95h-309v-313h-120v720h460v-101h-340z" />
    <glyph glyph-name="G" unicode="G" horiz-adv-x="749" 
d="M716 -3q-25 0 -42 7t-29 21t-20 35.5t-14 50.5q-35 -58 -93 -93t-138 -35q-81 0 -144.5 29.5t-108 80.5t-67.5 119t-23 145q0 79 23.5 148.5t68 121t109.5 81t148 29.5q58 0 112 -17t96 -50t69 -81t32 -109h-118q-4 36 -21.5 65.5t-44.5 50t-60 31.5t-68 11
q-59 0 -101.5 -24.5t-70 -64.5t-41 -90t-13.5 -102q0 -50 13 -99t40 -88t68 -63.5t98 -24.5q41 0 73.5 12.5t56.5 35t39.5 53.5t22.5 68h-185v95h312v-188q0 -23 4.5 -37.5t12.5 -22.5t20.5 -11t27.5 -3z" />
    <glyph glyph-name="H" unicode="H" horiz-adv-x="627" 
d="M450 0v323h-276v-323h-120v720h120v-303h276v303h120v-720h-120z" />
    <glyph glyph-name="I" unicode="I" horiz-adv-x="228" 
d="M54 0v720h120v-720h-120z" />
    <glyph glyph-name="J" unicode="J" 
d="M512 222q0 -119 -55 -179t-177 -60q-59 0 -102 16.5t-70.5 46.5t-40.5 71.5t-13 91.5v71h109v-61q0 -65 25.5 -103t88.5 -38q64 0 89.5 40.5t25.5 108.5v392h-157q-23 0 -37 -4.5t-22 -13t-10.5 -20t-2.5 -25.5l-81 40q0 24 4.5 46t17.5 39.5t36.5 28t61.5 10.5h310v-498
v0z" />
    <glyph glyph-name="K" unicode="K" horiz-adv-x="500" 
d="M362 0l-188 258v-258h-120v720h120v-258l188 258h138l-257 -360l257 -360h-138z" />
    <glyph glyph-name="L" unicode="L" 
d="M566 124q0 -24 -4.5 -46t-17 -39.5t-36 -28t-62.5 -10.5h-392v720h120v-619h239q23 0 37 4.5t22 12.5t10.5 20t2.5 26l81 -40v0z" />
    <glyph glyph-name="M" unicode="M" horiz-adv-x="904" 
d="M730 0v493q0 30 -4.5 57t-17 47.5t-33.5 32.5t-54 12t-54.5 -12t-33.5 -32.5t-16.5 -47.5t-4.5 -57v-493h-120v493q0 30 -4.5 57t-17 47.5t-33.5 32.5t-54 12t-54.5 -12t-33.5 -32.5t-16.5 -47.5t-4.5 -57v-493h-120v511q0 112 58.5 169t170.5 57q57 0 100 -19t69 -57
q26 38 69 57t100 19q112 0 170.5 -57t58.5 -169v-511h-120z" />
    <glyph glyph-name="N" unicode="N" 
d="M392 0v493q0 30 -4.5 57t-16.5 47.5t-33.5 32.5t-54.5 12t-54.5 -12.5t-33.5 -33t-16.5 -47.5t-4.5 -56v-493h-120v511q0 112 58.5 169t170.5 57q114 0 171.5 -57.5t57.5 -168.5v-511h-120z" />
    <glyph glyph-name="O" unicode="O" horiz-adv-x="765" 
d="M608 360q0 52 -13 102t-41 89t-70.5 63t-100.5 24q-59 0 -101.5 -24t-70.5 -63t-41 -89t-13 -102t13 -102t41 -89t70 -63t101 -24t101.5 24t70.5 63t41 89t13 102zM728 360q0 -78 -23.5 -146.5t-67.5 -120t-108.5 -81t-145.5 -29.5q-82 0 -146 29.5t-108.5 81t-68 120
t-23.5 146.5t23.5 146.5t67.5 120t108.5 81t145.5 29.5q82 0 146 -29.5t108.5 -81t68 -120t23.5 -146.5z" />
    <glyph glyph-name="P" unicode="P" horiz-adv-x="568" 
d="M417 496q0 67 -40.5 95t-109.5 28h-93v-248h86q31 0 59.5 6.5t50.5 21.5t34.5 39t12.5 58zM531 501q0 -56 -18.5 -98t-52.5 -70t-80.5 -42t-101.5 -14h-104v-277h-120v720h237q62 0 107 -18t74.5 -48.5t44 -70t14.5 -82.5z" />
    <glyph glyph-name="Q" unicode="Q" horiz-adv-x="765" 
d="M608 360q0 52 -13 102t-41 89t-70.5 63t-100.5 24q-59 0 -101.5 -24t-70.5 -63t-41 -89t-13 -102t13 -102t41 -89t70 -63t101 -24q38 0 71.5 13.5t58.5 41.5l-62 63q-12 12 -24.5 22t-26.5 11q-20 0 -43 -20l-12 89q18 14 38 24.5t43 10.5q24 1 44.5 -14.5t45.5 -38.5
l60 -58q17 30 25 64.5t8 69.5zM826 -55q-18 -14 -38.5 -24.5t-43.5 -10.5q-24 0 -45 14.5t-44 38.5l-83 88q-38 -35 -86.5 -51.5t-102.5 -16.5q-82 0 -146 30t-108.5 81t-68 119.5t-23.5 146.5t23.5 146.5t67.5 119.5t108.5 81t145.5 30q82 0 146 -30t108.5 -81t68 -119.5
t23.5 -146.5q0 -69 -19 -132.5t-57 -114.5l68 -66q13 -12 25 -22t26 -11q11 0 21.5 5.5t21.5 14.5l12 -89v0z" />
    <glyph glyph-name="R" unicode="R" horiz-adv-x="571" 
d="M413 509q0 55 -33.5 85.5t-116.5 30.5h-88v-241h88q27 0 54 6t48.5 20.5t34.5 38.5t13 60zM534 524q0 -64 -34 -113t-97 -66q37 -8 61 -26t38 -43t19.5 -56t5.5 -65v-155h-117v135q0 39 -6.5 69.5t-23 51.5t-44 31.5t-70.5 10.5h-90v-298h-121v720h253q48 0 89.5 -11
t71.5 -35t47.5 -61t17.5 -89z" />
    <glyph glyph-name="S" unicode="S" horiz-adv-x="615" 
d="M600 204q0 -60 -24 -102t-64 -68.5t-90.5 -38.5t-103.5 -12q-45 0 -98.5 11.5t-99.5 40.5t-77 78.5t-31 126.5h120q0 -46 15 -78t41 -52t61.5 -29t77.5 -9q28 0 55.5 6.5t49 21t35 37.5t13.5 56q0 34 -15 55t-42 34.5t-64 23l-81 20.5q-43 11 -86 23.5t-77.5 34t-56 55
t-21.5 86.5q0 58 23 98t60.5 65.5t85.5 37t97 11.5q55 0 104 -12t86 -38.5t59.5 -70t25.5 -106.5h-114q0 37 -13 63.5t-35 43t-51.5 24t-61.5 7.5q-25 0 -52 -5t-49.5 -17.5t-36.5 -33t-14 -51.5q0 -34 20 -55t52 -34.5t72 -23t82 -20.5q44 -11 84.5 -24.5t71 -36t49 -57
t18.5 -86.5z" />
    <glyph glyph-name="T" unicode="T" 
d="M343 619v-619h-120v619h-70q-23 0 -37 -4.5t-22 -13t-10.5 -20t-2.5 -25.5l-81 40q0 24 4.5 46t17 39.5t36 28t62.5 10.5h446v-101h-223z" />
    <glyph glyph-name="U" unicode="U" 
d="M512 209q0 -112 -58.5 -169t-170.5 -57q-114 0 -171.5 57.5t-57.5 168.5v511h120v-492q0 -30 4.5 -57t16.5 -48t33.5 -33t54.5 -12t54.5 12.5t33.5 33t16.5 47.5t4.5 56v493h120v-511v0z" />
    <glyph glyph-name="V" unicode="V" horiz-adv-x="592" 
d="M358 0h-124l-234 720h123l173 -509l173 509h123z" />
    <glyph glyph-name="W" unicode="W" horiz-adv-x="904" 
d="M850 209q0 -112 -58.5 -169t-170.5 -57q-57 0 -100 19t-69 57q-26 -38 -69 -57t-100 -19q-112 0 -170.5 57t-58.5 169v511h120v-493q0 -30 4.5 -57t17 -47.5t33.5 -32.5t54 -12t54.5 12t33.5 32.5t16.5 47.5t4.5 57v493h120v-493q0 -30 4.5 -57t17 -47.5t33.5 -32.5
t54 -12t54.5 12t33.5 32.5t16.5 47.5t4.5 57v493h120v-511v0z" />
    <glyph glyph-name="X" unicode="X" horiz-adv-x="653" 
d="M514 0l-188 258l-187 -258h-139l257 360l-257 360h138l188 -258l188 258h139l-257 -360l257 -360h-139z" />
    <glyph glyph-name="Y" unicode="Y" 
d="M512 538q0 -95 -42.5 -150t-126.5 -68v-320h-120v320q-85 13 -127 68.5t-42 149.5v182h120v-163q0 -30 4.5 -57t16.5 -47.5t33.5 -33t54.5 -12.5t54.5 12.5t33.5 33t16.5 47.5t4.5 57v163h120v-182v0z" />
    <glyph glyph-name="Z" unicode="Z" horiz-adv-x="597" 
d="M602 124q0 -24 -4.5 -46t-17 -39.5t-36 -28t-62.5 -10.5h-470v99l421 519h-393v102h548v-93l-423 -526h284q23 0 37 4.5t22 12.5t10.5 20t2.5 26l81 -40v0z" />
    <glyph glyph-name="bracketleft" unicode="[" horiz-adv-x="322" 
d="M54 -206v926h223v-86h-124v-753h124v-87h-223z" />
    <glyph glyph-name="backslash" unicode="\" horiz-adv-x="378" 
d="M292 0l-292 720h86l292 -720h-86z" />
    <glyph glyph-name="bracketright" unicode="]" horiz-adv-x="322" 
d="M49 -206v86h124v753h-124v87h223v-926h-223z" />
    <glyph glyph-name="asciicircum" unicode="^" horiz-adv-x="476" 
d="M390 311l-152 311l-151 -311h-87l202 409h71l203 -409h-86z" />
    <glyph glyph-name="underscore" unicode="_" horiz-adv-x="500" 
d="M0 -125v50h500v-50h-500z" />
    <glyph glyph-name="grave" unicode="`" horiz-adv-x="0" 
d="M179 714h118l113 -147h-76z" />
    <glyph glyph-name="a" unicode="a" horiz-adv-x="623" 
d="M460 340q0 24 -14 43.5t-35 33.5t-46 22t-47 8q-48 0 -80.5 -16t-53 -43t-29.5 -62t-9 -73q0 -40 10 -73.5t30.5 -58t52 -38.5t73.5 -14q27 0 53.5 8t47.5 24t34 38.5t13 51.5v149zM460 0v61q-29 -35 -71.5 -54.5t-96.5 -19.5q-57 0 -104 20t-80.5 55.5t-52 84
t-18.5 105.5q0 59 18 109.5t52 88t82 58.5t108 21q49 0 91.5 -17t71.5 -50v55h109v-517h-109z" />
    <glyph glyph-name="b" unicode="b" horiz-adv-x="623" 
d="M477 252q0 39 -9 74t-29.5 62t-53 43t-80.5 16q-22 0 -47 -8t-46 -22t-35 -33.5t-14 -43.5v-149q0 -29 13 -51.5t34 -38.5t47.5 -24t53.5 -8q42 0 73.5 14t52 38.5t30.5 58t10 73.5v-1zM586 253q0 -57 -18.5 -105.5t-52 -84.5t-80 -56t-103.5 -20q-54 0 -97 19.5
t-72 54.5v-61h-109v720h109v-258q29 33 71.5 50t90.5 17q60 0 108.5 -21t82.5 -58.5t52 -88t18 -108.5z" />
    <glyph glyph-name="c" unicode="c" 
d="M529 191q-6 -48 -25.5 -86t-51 -64.5t-72 -40t-88.5 -13.5q-58 0 -105 20.5t-80.5 56t-51.5 84t-18 104.5q0 58 18 109t51.5 88t82 58.5t108.5 21.5q44 0 84 -12t71.5 -36t51.5 -59.5t25 -81.5h-104q-7 51 -40.5 79t-84.5 28q-43 0 -72.5 -16.5t-47.5 -43.5t-26 -62
t-8 -72q0 -35 8 -68.5t25.5 -59t45.5 -41t68 -15.5q54 0 90.5 34t41.5 88h104v0z" />
    <glyph glyph-name="d" unicode="d" horiz-adv-x="623" 
d="M460 340q0 24 -14 43.5t-35 33.5t-46 22t-47 8q-48 0 -80.5 -16t-53 -43t-29.5 -62t-9 -73q0 -40 10 -73.5t30.5 -58t52 -38.5t73.5 -14q27 0 53.5 8t47.5 24t34 38.5t13 51.5v149zM460 0v61q-29 -35 -71.5 -54.5t-96.5 -19.5q-57 0 -104 20t-80.5 55.5t-52 84
t-18.5 105.5q0 59 18 109.5t52 88t82 58.5t108 21q49 0 91.5 -17t71.5 -50v258h109v-720h-109z" />
    <glyph glyph-name="e" unicode="e" 
d="M416 366q-12 38 -42.5 59.5t-73.5 21.5q-39 0 -67 -13.5t-46.5 -36.5t-28 -53.5t-10.5 -63.5v-12l268 98v0zM529 191q-6 -48 -25.5 -86t-51 -64.5t-72 -40t-88.5 -13.5q-58 0 -105 20.5t-80.5 56t-51.5 84t-18 104.5q0 58 18 109t51.5 88t82 58.5t108.5 21.5q44 0 84 -12
t71.5 -36t51.5 -59.5t25 -81.5l-379 -138q4 -27 15 -51.5t28.5 -42.5t42.5 -28.5t57 -10.5q54 0 90.5 34t41.5 88h104v0z" />
    <glyph glyph-name="f" unicode="f" horiz-adv-x="217" 
d="M273 645q-17 3 -45 3q-15 0 -27 -2.5t-20.5 -10t-13 -22t-4.5 -37.5v-59h54v-78h-54v-439h-109v438h-54v71h54v100q0 40 11 65t29.5 38.5t42 18t47.5 4.5q28 0 48.5 -2.5t40.5 -2.5v-85v0z" />
    <glyph glyph-name="g" unicode="g" horiz-adv-x="619" 
d="M460 340q0 24 -14 43.5t-35 33.5t-46 22t-47 8q-48 0 -80.5 -16t-53 -43t-29.5 -62t-9 -73q0 -40 10 -73.5t30.5 -58t52 -38.5t73.5 -14q27 0 53.5 8t47.5 24t34 38.5t13 51.5v149zM569 4q0 -45 -11 -86.5t-39 -72.5t-74.5 -49.5t-117.5 -18.5q-42 0 -82.5 8t-73 27.5
t-53.5 52t-25 80.5h108q6 -48 41.5 -74t80.5 -26q36 0 61.5 12t42.5 32.5t25 48.5t8 60v63q-29 -35 -71.5 -54.5t-96.5 -19.5q-57 0 -104 20t-80.5 55.5t-52 84t-18.5 105.5q0 59 18 109.5t52 88t82 58.5t108 21q49 0 91.5 -17t71.5 -50v55h109v-513v0z" />
    <glyph glyph-name="h" unicode="h" horiz-adv-x="573" 
d="M410 0v305q0 28 -6 53t-19.5 43t-35.5 28.5t-53 10.5q-34 0 -59 -13t-41.5 -34.5t-24.5 -50t-8 -59.5v-283h-109v720h109v-295q26 54 70.5 79t104.5 25q83 0 132 -49t49 -131v-349h-109z" />
    <glyph glyph-name="i" unicode="i" horiz-adv-x="217" 
d="M54 0v517h109v-517h-109zM180 674q0 -14 -6 -26t-16 -20t-23 -12.5t-26 -4.5q-27 0 -49.5 17t-22.5 46q0 28 22.5 45.5t48.5 17.5q27 0 49.5 -17t22.5 -46z" />
    <glyph glyph-name="j" unicode="j" horiz-adv-x="217" 
d="M163 4q0 -45 -11 -86.5t-39 -72.5t-74.5 -49.5t-117.5 -18.5q-42 0 -82.5 8t-73 27.5t-53.5 52t-25 80.5h108q6 -48 41.5 -74t80.5 -26q36 0 61.5 12t42.5 32.5t25 48.5t8 60v519h109v-513v0zM180 674q0 -14 -6 -26t-16 -20t-23 -12.5t-26 -4.5q-27 0 -49.5 17t-22.5 46
q0 28 22.5 45.5t48.5 17.5q27 0 49.5 -17t22.5 -46z" />
    <glyph glyph-name="k" unicode="k" horiz-adv-x="408" 
d="M288 0l-125 170v-170h-109v720h109v-374l125 171h120l-185 -259l185 -258h-120z" />
    <glyph glyph-name="l" unicode="l" horiz-adv-x="217" 
d="M54 0v720h109v-720h-109z" />
    <glyph glyph-name="m" unicode="m" horiz-adv-x="929" 
d="M766 0v305q0 28 -6 52.5t-19.5 43t-35.5 29t-53 10.5q-34 0 -59 -13t-41.5 -35t-24.5 -50t-8 -59v-283h-109v305q0 28 -6 52.5t-19.5 43t-35.5 29t-53 10.5q-34 0 -59 -13t-41.5 -35t-24.5 -50t-8 -59v-283h-109v517h109v-92q26 54 70.5 79t104.5 25q68 0 113 -33t59 -91
q23 64 69.5 94t114.5 30q83 0 132 -49t49 -131v-349h-109z" />
    <glyph glyph-name="n" unicode="n" horiz-adv-x="573" 
d="M410 0v305q0 28 -6 53t-19.5 43t-35.5 28.5t-53 10.5q-34 0 -59 -13t-41.5 -34.5t-24.5 -50t-8 -59.5v-283h-109v517h109v-92q26 54 70.5 79t104.5 25q83 0 132 -49t49 -131v-349h-109z" />
    <glyph glyph-name="o" unicode="o" horiz-adv-x="589" 
d="M443 258q0 34 -8 68t-26 61t-46 43.5t-68 16.5t-68.5 -16.5t-46.5 -43.5t-26 -60.5t-8 -67.5q0 -35 8 -69t26 -61t46 -43.5t68 -16.5t68 16.5t46 43.5t26 61t8 69zM552 259q0 -54 -16 -103t-48 -86.5t-80.5 -60t-113.5 -22.5t-113 22.5t-80 60t-48 86.5t-16 102t16 102
t48 86.5t80 60t113 22.5t113.5 -22t80.5 -59.5t48 -86.5t16 -102z" />
    <glyph glyph-name="p" unicode="p" horiz-adv-x="623" 
d="M477 252q0 39 -9 74t-29.5 62t-53 43t-80.5 16q-22 0 -47 -8t-46 -22t-35 -33.5t-14 -43.5v-149q0 -29 13 -51.5t34 -38.5t47.5 -24t53.5 -8q42 0 73.5 14t52 38.5t30.5 58t10 73.5v-1zM586 253q0 -57 -18.5 -105.5t-52 -84.5t-80 -56t-103.5 -20q-54 0 -97 19.5
t-72 54.5v-267h-109v723h109v-55q29 33 71.5 50t90.5 17q60 0 108.5 -21t82.5 -58.5t52 -88t18 -108.5z" />
    <glyph glyph-name="q" unicode="q" horiz-adv-x="623" 
d="M460 340q0 24 -14 43.5t-35 33.5t-46 22t-47 8q-48 0 -80.5 -16t-53 -43t-29.5 -62t-9 -73q0 -40 10 -73.5t30.5 -58t52 -38.5t73.5 -14q27 0 53.5 8t47.5 24t34 38.5t13 51.5v149zM460 -206v267q-29 -35 -71.5 -54.5t-96.5 -19.5q-57 0 -104 20t-80.5 55.5t-52 84
t-18.5 105.5q0 59 18 109.5t52 88t82 58.5t108 21q49 0 91.5 -17t71.5 -50v55h109v-723h-109z" />
    <glyph glyph-name="r" unicode="r" horiz-adv-x="364" 
d="M296 440q-34 0 -59 -13t-41.5 -35t-24.5 -50t-8 -59v-283h-109v517h109v-92q26 54 70.5 79t104.5 25q7 0 13.5 -0.5t12.5 -1.5z" />
    <glyph glyph-name="s" unicode="s" horiz-adv-x="503" 
d="M480 151q0 -47 -20 -78t-52.5 -50.5t-72.5 -27.5t-80 -8q-48 0 -90.5 10.5t-74 33t-50 57.5t-19.5 85h104q2 -59 37.5 -87t95.5 -28q19 0 39.5 4.5t37.5 14t28.5 25t11.5 37.5t-9.5 36.5t-28 24.5t-45 16.5t-60.5 13.5q-44 9 -80 20t-61.5 28t-39.5 42t-14 62
q0 35 16.5 62.5t44.5 46t66 28.5t82 10q42 0 81.5 -8t70 -27.5t49 -51t19.5 -77.5h-101q0 51 -34 75t-82 24q-32 0 -53 -8t-33 -19.5t-16.5 -24t-4.5 -22.5q0 -27 22.5 -43.5t53 -26.5t63.5 -16t54 -12q27 -8 53 -18t46.5 -26t33 -39.5t12.5 -57.5z" />
    <glyph glyph-name="t" unicode="t" horiz-adv-x="217" 
d="M163 446v-446h-109v445h-54v71h54v117l109 61v-177h54v-71h-54z" />
    <glyph glyph-name="u" unicode="u" horiz-adv-x="573" 
d="M410 0v92q-26 -54 -70.5 -79.5t-104.5 -25.5q-83 0 -132 49t-49 132v349h109v-305q0 -29 6 -53.5t19.5 -43t35.5 -29t53 -10.5q34 0 59 13t41.5 35t24.5 50.5t8 59.5v283h109v-517h-109z" />
    <glyph glyph-name="v" unicode="v" horiz-adv-x="470" 
d="M292 0h-114l-178 517h114l121 -343l121 343h114z" />
    <glyph glyph-name="w" unicode="w" horiz-adv-x="929" 
d="M766 0v92q-26 -54 -70.5 -79.5t-104.5 -25.5q-68 0 -113 33.5t-59 91.5q-23 -64 -69.5 -94.5t-114.5 -30.5q-83 0 -132 49t-49 132v349h109v-305q0 -29 6 -53.5t19.5 -43t35 -29t53.5 -10.5q34 0 59 13t41.5 35t24.5 50.5t8 59.5v283h109v-305q0 -29 6 -53.5t19.5 -43
t35 -29t53.5 -10.5q34 0 59 13t41.5 35t24.5 50.5t8 59.5v283h109v-517h-109z" />
    <glyph glyph-name="x" unicode="x" horiz-adv-x="489" 
d="M369 0l-124 170l-125 -170h-120l184 258l-184 259h120l125 -171l124 171h120l-184 -259l184 -258h-120z" />
    <glyph glyph-name="y" unicode="y" horiz-adv-x="573" 
d="M519 4q0 -45 -11 -86.5t-39 -72.5t-74.5 -49.5t-117.5 -18.5q-42 0 -82.5 8t-73 27.5t-53.5 52t-25 80.5h108q6 -48 41.5 -74t80.5 -26q36 0 61.5 12t42.5 32.5t25 48.5t8 60v94q-26 -54 -70.5 -79.5t-104.5 -25.5q-83 0 -132 49t-49 132v349h109v-305q0 -29 6 -53.5
t19.5 -43t35.5 -29t53 -10.5q34 0 59 13t41.5 35t24.5 50.5t8 59.5v283h109v-513v0z" />
    <glyph glyph-name="z" unicode="z" horiz-adv-x="482" 
d="M482 106q0 -20 -4 -39t-15.5 -34t-32 -24t-53.5 -9h-366v89l302 345h-278v83h415v-89l-299 -346h200q42 0 53.5 15.5t11.5 41.5l66 -33v0z" />
    <glyph glyph-name="braceleft" unicode="{" horiz-adv-x="358" 
d="M231 -206q-50 0 -79 30.5t-29 88.5v183q0 49 -20 77t-58 42v87q15 1 29 9.5t25 23.5t17.5 35t6.5 44v187q0 59 29 89t78 30h83v-86h-42q-30 0 -41.5 -20t-11.5 -64v-166q0 -48 -27.5 -83t-68.5 -44q42 -9 69 -41t27 -90v-160q0 -49 13 -67t43 -18h39v-87h-82z" />
    <glyph glyph-name="bar" unicode="|" horiz-adv-x="195" 
d="M54 0v720h87v-720h-87z" />
    <glyph glyph-name="braceright" unicode="}" horiz-adv-x="358" 
d="M313 215q-38 -14 -58 -42t-20 -77v-182q0 -59 -29.5 -89.5t-78.5 -30.5h-82v86h38q30 0 43 18.5t13 66.5v161q0 58 27 90t69 41q-41 9 -68 44t-27 83v165q0 45 -11.5 64.5t-41.5 19.5h-42v87h82q49 0 78 -30t29 -88v-188q0 -24 6.5 -44t18 -35t25.5 -23.5t29 -9.5v-87v0z
" />
    <glyph glyph-name="asciitilde" unicode="~" horiz-adv-x="528" 
d="M491 369l-22.5 -31.5t-25.5 -27.5t-31 -19.5t-38 -7.5q-26 0 -50 9.5t-49 22.5q-26 13 -54 24.5t-65 11.5q-33 0 -54.5 -21.5t-36.5 -50.5l-28 72q17 33 46 59t75 27q27 0 56 -10t58 -23l56 -24t47 -11q15 0 27.5 6.5t23 16.5t19.5 23l18 26l28 -72v0z" />
    <glyph glyph-name="Adieresis" unicode="&#xc4;" 
d="M392 492q0 30 -4.5 57t-16.5 48t-33.5 33t-54.5 12t-54.5 -12.5t-33.5 -33t-16.5 -47.5t-4.5 -56v-85h218v84zM392 0v313h-218v-313h-120v511q0 112 58.5 169t170.5 57q114 0 171.5 -57.5t57.5 -168.5v-511h-120zM254 822q0 -14 -6 -26t-16 -20t-23 -12.5t-26 -4.5
q-27 0 -49.5 17t-22.5 46t22.5 46t49.5 17q26 0 48.5 -17.5t22.5 -45.5zM463 822q0 -14 -6 -26t-16 -20t-23 -12.5t-26 -4.5q-27 0 -49.5 17t-22.5 46t22.5 46t49.5 17q26 0 48.5 -17.5t22.5 -45.5z" />
    <glyph glyph-name="Aring" unicode="&#xc5;" 
d="M392 492q0 30 -4.5 57t-16.5 48t-33.5 33t-54.5 12t-54.5 -12.5t-33.5 -33t-16.5 -47.5t-4.5 -56v-86h218v85zM343 844q0 24 -18 42t-42 18t-42.5 -17.5t-18.5 -42.5q0 -24 18 -42t43 -18q24 0 42 18t18 42zM392 0v313h-218v-313h-120v511q0 112 58.5 169t170.5 57
q114 0 171.5 -57.5t57.5 -168.5v-511h-120zM383 844q0 -20 -8 -38.5t-21.5 -32t-31.5 -21.5t-39 -8q-20 0 -38.5 8t-32.5 21.5t-22 31.5t-8 39t8 39t22 31.5t32.5 21.5t38.5 8t38.5 -8t32 -21.5t21.5 -32t8 -38.5z" />
    <glyph glyph-name="Ccedilla" unicode="&#xc7;" horiz-adv-x="732" 
d="M695 280q-5 -63 -28 -116t-61.5 -92t-90.5 -62t-115 -26l-30 -45q17 7 39 7q16 0 32 -4t28.5 -12.5t20 -22t7.5 -32.5q0 -24 -10 -40t-26.5 -25.5t-37 -13.5t-41.5 -4q-33 0 -58.5 7t-51.5 16l15 33q20 -6 39.5 -12.5t39.5 -6.5q12 0 23.5 2t21 7.5t15.5 14t6 21.5
q0 20 -17 29t-32 9q-26 0 -47 -12l-21 17l46 66q-77 4 -137 35t-101.5 81.5t-63.5 116.5t-22 141q0 79 23.5 148.5t68 121t109.5 81t148 29.5q58 0 112 -17t96 -50t69 -81t32 -109h-118q-4 36 -21.5 65.5t-44.5 50t-60 31.5t-68 11q-59 0 -101.5 -24.5t-70 -64.5t-41 -90
t-13.5 -102q0 -50 13 -99t40 -88t68 -63.5t98 -24.5q46 0 80.5 15t59.5 42t40 63t21 78h118v0z" />
    <glyph glyph-name="Eacute" unicode="&#xc9;" horiz-adv-x="599" 
d="M54 0v720h460v-101h-340v-211h309v-95h-309v-211h347v-102h-467zM277 764h-76l116 147h119z" />
    <glyph glyph-name="Ntilde" unicode="&#xd1;" 
d="M392 0v493q0 30 -4.5 57t-16.5 47.5t-33.5 32.5t-54.5 12t-54.5 -12.5t-33.5 -33t-16.5 -47.5t-4.5 -56v-493h-120v511q0 112 58.5 169t170.5 57q114 0 171.5 -57.5t57.5 -168.5v-511h-120zM466 883q-1 -22 -7 -41.5t-17.5 -34.5t-29 -23.5t-39.5 -8.5q-21 0 -39.5 7.5
t-35.5 16.5t-33.5 16.5t-32.5 7.5q-19 0 -30.5 -17t-13.5 -34h-50q0 18 5 37.5t16.5 36t28.5 27t40 10.5q20 0 40 -8t38 -17l33.5 -17t27.5 -8q42 0 47 50h52v0z" />
    <glyph glyph-name="Odieresis" unicode="&#xd6;" horiz-adv-x="765" 
d="M608 360q0 52 -13 102t-41 89t-70.5 63t-100.5 24q-59 0 -101.5 -24t-70.5 -63t-41 -89t-13 -102t13 -102t41 -89t70 -63t101 -24t101.5 24t70.5 63t41 89t13 102zM728 360q0 -78 -23.5 -146.5t-67.5 -120t-108.5 -81t-145.5 -29.5q-82 0 -146 29.5t-108.5 81t-68 120
t-23.5 146.5t23.5 146.5t67.5 120t108.5 81t145.5 29.5q82 0 146 -29.5t108.5 -81t68 -120t23.5 -146.5zM344 822q0 -14 -6 -26t-16 -20t-23 -12.5t-26 -4.5q-27 0 -49.5 17t-22.5 46t22.5 46t49.5 17q26 0 48.5 -17.5t22.5 -45.5zM553 822q0 -14 -6 -26t-16 -20t-23 -12.5
t-26 -4.5q-27 0 -49.5 17t-22.5 46t22.5 46t49.5 17q26 0 48.5 -17.5t22.5 -45.5z" />
    <glyph glyph-name="Udieresis" unicode="&#xdc;" 
d="M512 209q0 -112 -58.5 -169t-170.5 -57q-114 0 -171.5 57.5t-57.5 168.5v511h120v-492q0 -30 4.5 -57t16.5 -48t33.5 -33t54.5 -12t54.5 12.5t33.5 33t16.5 47.5t4.5 56v493h120v-511v0zM253 822q0 -29 -22.5 -46t-49.5 -17q-13 0 -26 4.5t-23 12.5t-16 20t-6 26
q0 28 22.5 45.5t48.5 17.5q27 0 49.5 -17t22.5 -46zM462 822q0 -29 -22.5 -46t-49.5 -17t-49 17t-22 46t22 46t49 17t49.5 -17t22.5 -46z" />
    <glyph glyph-name="aacute" unicode="&#xe1;" horiz-adv-x="623" 
d="M460 340q0 24 -14 43.5t-35 33.5t-46 22t-47 8q-48 0 -80.5 -16t-53 -43t-29.5 -62t-9 -73q0 -40 10 -73.5t30.5 -58t52 -38.5t73.5 -14q27 0 53.5 8t47.5 24t34 38.5t13 51.5v149zM460 0v61q-29 -35 -71.5 -54.5t-96.5 -19.5q-57 0 -104 20t-80.5 55.5t-52 84
t-18.5 105.5q0 59 18 109.5t52 88t82 58.5t108 21q49 0 91.5 -17t71.5 -50v55h109v-517h-109zM270 567h-76l116 147h119z" />
    <glyph glyph-name="agrave" unicode="&#xe0;" horiz-adv-x="623" 
d="M460 340q0 24 -14 43.5t-35 33.5t-46 22t-47 8q-48 0 -80.5 -16t-53 -43t-29.5 -62t-9 -73q0 -40 10 -73.5t30.5 -58t52 -38.5t73.5 -14q27 0 53.5 8t47.5 24t34 38.5t13 51.5v149zM460 0v61q-29 -35 -71.5 -54.5t-96.5 -19.5q-57 0 -104 20t-80.5 55.5t-52 84
t-18.5 105.5q0 59 18 109.5t52 88t82 58.5t108 21q49 0 91.5 -17t71.5 -50v55h109v-517h-109zM325 567l-156 147h119l113 -147h-76z" />
    <glyph glyph-name="acircumflex" unicode="&#xe2;" horiz-adv-x="623" 
d="M460 340q0 24 -14 43.5t-35 33.5t-46 22t-47 8q-48 0 -80.5 -16t-53 -43t-29.5 -62t-9 -73q0 -40 10 -73.5t30.5 -58t52 -38.5t73.5 -14q27 0 53.5 8t47.5 24t34 38.5t13 51.5v149zM460 0v61q-29 -35 -71.5 -54.5t-96.5 -19.5q-57 0 -104 20t-80.5 55.5t-52 84
t-18.5 105.5q0 59 18 109.5t52 88t82 58.5t108 21q49 0 91.5 -17t71.5 -50v55h109v-517h-109zM378 569l-80 100l-78 -100h-84l117 145h90l118 -144z" />
    <glyph glyph-name="adieresis" unicode="&#xe4;" horiz-adv-x="623" 
d="M460 340q0 24 -14 43.5t-35 33.5t-46 22t-47 8q-48 0 -80.5 -16t-53 -43t-29.5 -62t-9 -73q0 -40 10 -73.5t30.5 -58t52 -38.5t73.5 -14q27 0 53.5 8t47.5 24t34 38.5t13 51.5v149zM460 0v61q-29 -35 -71.5 -54.5t-96.5 -19.5q-57 0 -104 20t-80.5 55.5t-52 84
t-18.5 105.5q0 59 18 109.5t52 88t82 58.5t108 21q49 0 91.5 -17t71.5 -50v55h109v-517h-109zM288 624q0 -14 -6 -26t-16 -20t-23 -12.5t-26 -4.5q-27 0 -49.5 17t-22.5 46t22.5 46t49.5 17q26 0 48.5 -17.5t22.5 -45.5zM497 624q0 -14 -6 -26t-16 -20t-23 -12.5t-26 -4.5
q-27 0 -49.5 17t-22.5 46t22.5 46t49.5 17q26 0 48.5 -17.5t22.5 -45.5z" />
    <glyph glyph-name="atilde" unicode="&#xe3;" horiz-adv-x="623" 
d="M460 340q0 24 -14 43.5t-35 33.5t-46 22t-47 8q-48 0 -80.5 -16t-53 -43t-29.5 -62t-9 -73q0 -40 10 -73.5t30.5 -58t52 -38.5t73.5 -14q27 0 53.5 8t47.5 24t34 38.5t13 51.5v149zM460 0v61q-29 -35 -71.5 -54.5t-96.5 -19.5q-57 0 -104 20t-80.5 55.5t-52 84
t-18.5 105.5q0 59 18 109.5t52 88t82 58.5t108 21q49 0 91.5 -17t71.5 -50v55h109v-517h-109zM487 685q-1 -43 -24 -75t-68 -32q-21 0 -40 7.5t-36 16.5t-33 16.5t-32 7.5q-20 0 -31.5 -17.5t-13.5 -34.5h-50q0 18 5.5 37.5t17 36t28 27t39.5 10.5q20 0 40 -7.5t38 -17
t34 -17t28 -7.5q41 0 47 49h51v0z" />
    <glyph glyph-name="aring" unicode="&#xe5;" horiz-adv-x="623" 
d="M460 340q0 24 -14 43.5t-35 33.5t-46 22t-47 8q-48 0 -80.5 -16t-53 -43t-29.5 -62t-9 -73q0 -40 10 -73.5t30.5 -58t52 -38.5t73.5 -14q27 0 53.5 8t47.5 24t34 38.5t13 51.5v149zM360 669q0 24 -18 42.5t-42 18.5t-42.5 -18t-18.5 -42q0 -25 18 -43t42 -18
q25 0 42.5 18t17.5 43zM460 0v61q-29 -35 -71.5 -54.5t-96.5 -19.5q-57 0 -104 20t-80.5 55.5t-52 84t-18.5 105.5q0 59 18 109.5t52 88t82 58.5t108 21q49 0 91.5 -17t71.5 -50v55h109v-517h-109zM400 670q0 -21 -8 -39t-21.5 -32t-31.5 -22t-39 -8t-39 8t-32 21.5
t-22 31.5t-8 39t8 39t21.5 32t32 22t38.5 8t38.5 -8t32.5 -21.5t22 -32t8 -38.5z" />
    <glyph glyph-name="ccedilla" unicode="&#xe7;" 
d="M529 191q-5 -46 -23.5 -82.5t-47 -62.5t-66 -40.5t-81.5 -17.5l-33 -49q17 7 39 7q16 0 32 -4t28.5 -12.5t20 -22t7.5 -32.5q0 -24 -10 -40t-26.5 -25.5t-37 -13.5t-41.5 -4q-33 0 -58.5 7t-51.5 16l15 33q20 -6 39.5 -12.5t39.5 -6.5q12 0 23.5 2t21 7.5t15.5 14t6 21.5
q0 20 -17 29t-32 9q-26 0 -47 -12l-21 17l49 71q-54 3 -97 24.5t-74 57t-47.5 82t-16.5 100.5q0 58 18 109t51.5 88t82 58.5t108.5 21.5q44 0 84 -12t71.5 -36t51.5 -59.5t25 -81.5h-104q-7 51 -40.5 79t-84.5 28q-43 0 -72.5 -16.5t-47.5 -43.5t-26 -62t-8 -72
q0 -35 8 -68.5t25.5 -59t45.5 -41t68 -15.5q54 0 90.5 34t41.5 88h104v0z" />
    <glyph glyph-name="eacute" unicode="&#xe9;" horiz-adv-x="538" 
d="M416 366q-12 38 -42.5 59.5t-73.5 21.5q-39 0 -67 -13.5t-46.5 -36.5t-28 -53.5t-10.5 -63.5v-12l268 98v0zM529 191q-6 -48 -25.5 -86t-51 -64.5t-72 -40t-88.5 -13.5q-58 0 -105 20.5t-80.5 56t-51.5 84t-18 104.5q0 58 18 109t51.5 88t82 58.5t108.5 21.5q44 0 84 -12
t71.5 -36t51.5 -59.5t25 -81.5l-379 -138q4 -27 15 -51.5t28.5 -42.5t42.5 -28.5t57 -10.5q54 0 90.5 34t41.5 88h104v0zM254 567h-76l116 147h119z" />
    <glyph glyph-name="egrave" unicode="&#xe8;" horiz-adv-x="538" 
d="M416 366q-12 38 -42.5 59.5t-73.5 21.5q-39 0 -67 -13.5t-46.5 -36.5t-28 -53.5t-10.5 -63.5v-12l268 98v0zM529 191q-6 -48 -25.5 -86t-51 -64.5t-72 -40t-88.5 -13.5q-58 0 -105 20.5t-80.5 56t-51.5 84t-18 104.5q0 58 18 109t51.5 88t82 58.5t108.5 21.5q44 0 84 -12
t71.5 -36t51.5 -59.5t25 -81.5l-379 -138q4 -27 15 -51.5t28.5 -42.5t42.5 -28.5t57 -10.5q54 0 90.5 34t41.5 88h104v0zM324 567l-156 147h119l113 -147h-76z" />
    <glyph glyph-name="ecircumflex" unicode="&#xea;" horiz-adv-x="538" 
d="M416 366q-12 38 -42.5 59.5t-73.5 21.5q-39 0 -67 -13.5t-46.5 -36.5t-28 -53.5t-10.5 -63.5v-12l268 98v0zM529 191q-6 -48 -25.5 -86t-51 -64.5t-72 -40t-88.5 -13.5q-58 0 -105 20.5t-80.5 56t-51.5 84t-18 104.5q0 58 18 109t51.5 88t82 58.5t108.5 21.5q44 0 84 -12
t71.5 -36t51.5 -59.5t25 -81.5l-379 -138q4 -27 15 -51.5t28.5 -42.5t42.5 -28.5t57 -10.5q54 0 90.5 34t41.5 88h104v0zM377 569l-80 100l-78 -100h-84l117 145h90l118 -144z" />
    <glyph glyph-name="edieresis" unicode="&#xeb;" horiz-adv-x="538" 
d="M416 366q-12 38 -42.5 59.5t-73.5 21.5q-39 0 -67 -13.5t-46.5 -36.5t-28 -53.5t-10.5 -63.5v-12l268 98v0zM529 191q-6 -48 -25.5 -86t-51 -64.5t-72 -40t-88.5 -13.5q-58 0 -105 20.5t-80.5 56t-51.5 84t-18 104.5q0 58 18 109t51.5 88t82 58.5t108.5 21.5q44 0 84 -12
t71.5 -36t51.5 -59.5t25 -81.5l-379 -138q4 -27 15 -51.5t28.5 -42.5t42.5 -28.5t57 -10.5q54 0 90.5 34t41.5 88h104v0zM267 624q0 -14 -6 -26t-16 -20t-23 -12.5t-26 -4.5q-27 0 -49.5 17t-22.5 46t22.5 46t49.5 17q26 0 48.5 -17.5t22.5 -45.5zM476 624q0 -14 -6 -26
t-16 -20t-23 -12.5t-26 -4.5q-27 0 -49.5 17t-22.5 46t22.5 46t49.5 17q26 0 48.5 -17.5t22.5 -45.5z" />
    <glyph glyph-name="iacute" unicode="&#xed;" horiz-adv-x="217" 
d="M54 0v517h109v-517h-109zM73 567h-76l116 147h119z" />
    <glyph glyph-name="igrave" unicode="&#xec;" horiz-adv-x="217" 
d="M54 0v517h109v-517h-109zM148 567l-156 147h119l113 -147h-76z" />
    <glyph glyph-name="icircumflex" unicode="&#xee;" horiz-adv-x="217" 
d="M54 0v517h109v-517h-109zM191 569l-80 100l-78 -100h-84l117 145h90l118 -144z" />
    <glyph glyph-name="idieresis" unicode="&#xef;" horiz-adv-x="217" 
d="M54 0v517h109v-517h-109zM81 624q0 -14 -6 -26t-16 -20t-23 -12.5t-26 -4.5q-27 0 -49.5 17t-22.5 46t22.5 46t49.5 17q26 0 48.5 -17.5t22.5 -45.5zM290 624q0 -14 -6 -26t-16 -20t-23 -12.5t-26 -4.5q-27 0 -49.5 17t-22.5 46t22.5 46t49.5 17q26 0 48.5 -17.5
t22.5 -45.5z" />
    <glyph glyph-name="ntilde" unicode="&#xf1;" horiz-adv-x="573" 
d="M410 0v305q0 28 -6 53t-19.5 43t-35.5 28.5t-53 10.5q-34 0 -59 -13t-41.5 -34.5t-24.5 -50t-8 -59.5v-283h-109v517h109v-92q26 54 70.5 79t104.5 25q83 0 132 -49t49 -131v-349h-109zM461 685q-2 -43 -25 -75t-68 -32q-21 0 -39.5 7.5t-35.5 16.5t-33.5 16.5t-32.5 7.5
q-19 0 -30.5 -17.5t-13.5 -34.5h-50q0 18 5 37.5t16.5 36t28.5 27t40 10.5q20 0 40 -7.5t38 -17l33.5 -17t27.5 -7.5q42 0 47 49h52v0z" />
    <glyph glyph-name="oacute" unicode="&#xf3;" horiz-adv-x="589" 
d="M443 258q0 34 -8 68t-26 61t-46 43.5t-68 16.5t-68.5 -16.5t-46.5 -43.5t-26 -60.5t-8 -67.5q0 -35 8 -69t26 -61t46 -43.5t68 -16.5t68 16.5t46 43.5t26 61t8 69zM552 259q0 -54 -16 -103t-48 -86.5t-80.5 -60t-113.5 -22.5t-113 22.5t-80 60t-48 86.5t-16 102t16 102
t48 86.5t80 60t113 22.5t113.5 -22t80.5 -59.5t48 -86.5t16 -103v1zM269 567h-76l116 147h119z" />
    <glyph glyph-name="ograve" unicode="&#xf2;" horiz-adv-x="589" 
d="M443 258q0 34 -8 68t-26 61t-46 43.5t-68 16.5t-68.5 -16.5t-46.5 -43.5t-26 -60.5t-8 -67.5q0 -35 8 -69t26 -61t46 -43.5t68 -16.5t68 16.5t46 43.5t26 61t8 69zM552 259q0 -54 -16 -103t-48 -86.5t-80.5 -60t-113.5 -22.5t-113 22.5t-80 60t-48 86.5t-16 102t16 102
t48 86.5t80 60t113 22.5t113.5 -22t80.5 -59.5t48 -86.5t16 -103v1zM324 567l-156 147h119l113 -147h-76z" />
    <glyph glyph-name="ocircumflex" unicode="&#xf4;" horiz-adv-x="589" 
d="M443 258q0 34 -8 68t-26 61t-46 43.5t-68 16.5t-68.5 -16.5t-46.5 -43.5t-26 -60.5t-8 -67.5q0 -35 8 -69t26 -61t46 -43.5t68 -16.5t68 16.5t46 43.5t26 61t8 69zM552 259q0 -54 -16 -103t-48 -86.5t-80.5 -60t-113.5 -22.5t-113 22.5t-80 60t-48 86.5t-16 102t16 102
t48 86.5t80 60t113 22.5t113.5 -22t80.5 -59.5t48 -86.5t16 -103v1zM372 569l-80 100l-78 -100h-84l117 145h90l118 -144z" />
    <glyph glyph-name="odieresis" unicode="&#xf6;" horiz-adv-x="589" 
d="M443 258q0 34 -8 68t-26 61t-46 43.5t-68 16.5t-68.5 -16.5t-46.5 -43.5t-26 -60.5t-8 -67.5q0 -35 8 -69t26 -61t46 -43.5t68 -16.5t68 16.5t46 43.5t26 61t8 69zM552 259q0 -54 -16 -103t-48 -86.5t-80.5 -60t-113.5 -22.5t-113 22.5t-80 60t-48 86.5t-16 102t16 102
t48 86.5t80 60t113 22.5t113.5 -22t80.5 -59.5t48 -86.5t16 -103v1zM262 624q0 -14 -6 -26t-16 -20t-23 -12.5t-26 -4.5q-27 0 -49.5 17t-22.5 46t22.5 46t49.5 17q26 0 48.5 -17.5t22.5 -45.5zM471 624q0 -14 -6 -26t-16 -20t-23 -12.5t-26 -4.5q-27 0 -49.5 17t-22.5 46
t22.5 46t49.5 17q26 0 48.5 -17.5t22.5 -45.5z" />
    <glyph glyph-name="otilde" unicode="&#xf5;" horiz-adv-x="589" 
d="M443 258q0 34 -8 68t-26 61t-46 43.5t-68 16.5t-68.5 -16.5t-46.5 -43.5t-26 -60.5t-8 -67.5q0 -35 8 -69t26 -61t46 -43.5t68 -16.5t68 16.5t46 43.5t26 61t8 69zM552 259q0 -54 -16 -103t-48 -86.5t-80.5 -60t-113.5 -22.5t-113 22.5t-80 60t-48 86.5t-16 102t16 102
t48 86.5t80 60t113 22.5t113.5 -22t80.5 -59.5t48 -86.5t16 -103v1zM456 685q-1 -43 -24 -75t-68 -32q-21 0 -40 7.5t-36 16.5t-33 16.5t-32 7.5q-20 0 -31.5 -17.5t-13.5 -34.5h-50q0 18 5.5 37.5t17 36t28 27t39.5 10.5q20 0 40 -7.5t38 -17t34 -17t28 -7.5q41 0 47 49h51
v0z" />
    <glyph glyph-name="uacute" unicode="&#xfa;" horiz-adv-x="573" 
d="M410 0v92q-26 -54 -70.5 -79.5t-104.5 -25.5q-83 0 -132 49t-49 132v349h109v-305q0 -29 6 -53.5t19.5 -43t35.5 -29t53 -10.5q34 0 59 13t41.5 35t24.5 50.5t8 59.5v283h109v-517h-109zM254 567h-76l115 147h120z" />
    <glyph glyph-name="ugrave" unicode="&#xf9;" horiz-adv-x="573" 
d="M410 0v92q-26 -54 -70.5 -79.5t-104.5 -25.5q-83 0 -132 49t-49 132v349h109v-305q0 -29 6 -53.5t19.5 -43t35.5 -29t53 -10.5q34 0 59 13t41.5 35t24.5 50.5t8 59.5v283h109v-517h-109zM308 567l-155 147h118l113 -147h-76z" />
    <glyph glyph-name="ucircumflex" unicode="&#xfb;" horiz-adv-x="573" 
d="M410 0v92q-26 -54 -70.5 -79.5t-104.5 -25.5q-83 0 -132 49t-49 132v349h109v-305q0 -29 6 -53.5t19.5 -43t35.5 -29t53 -10.5q34 0 59 13t41.5 35t24.5 50.5t8 59.5v283h109v-517h-109zM364 569l-80 100l-77 -100h-84l117 145h89l119 -144z" />
    <glyph glyph-name="udieresis" unicode="&#xfc;" horiz-adv-x="573" 
d="M410 0v92q-26 -54 -70.5 -79.5t-104.5 -25.5q-83 0 -132 49t-49 132v349h109v-305q0 -29 6 -53.5t19.5 -43t35.5 -29t53 -10.5q34 0 59 13t41.5 35t24.5 50.5t8 59.5v283h109v-517h-109zM257 624q0 -14 -6 -26t-16 -20t-23 -12.5t-26 -4.5q-27 0 -49.5 17t-22.5 46
t22.5 46t49.5 17q26 0 48.5 -17.5t22.5 -45.5zM466 624q0 -14 -6 -26t-16 -20t-23 -12.5t-26 -4.5q-27 0 -49.5 17t-22.5 46t22.5 46t49.5 17q26 0 48.5 -17.5t22.5 -45.5z" />
    <glyph glyph-name="dagger" unicode="&#x2020;" horiz-adv-x="582" 
d="M345 411l8 -617h-124l8 617l-192 -8v105l192 -8l-8 220h124l-8 -220l192 8v-104z" />
    <glyph glyph-name="degree" unicode="&#xb0;" horiz-adv-x="366" 
d="M280 586q0 40 -27.5 68.5t-69.5 28.5q-20 0 -37.5 -8t-30.5 -21t-21 -31t-8 -37q0 -43 28.5 -70.5t68.5 -27.5q20 0 38 7.5t31 20.5t20.5 31t7.5 39zM329 586q0 -31 -11 -58t-30.5 -46.5t-46.5 -31t-58 -11.5t-58 11t-46.5 31t-30.5 46.5t-11 58.5q0 31 11 57.5t30.5 46
t46.5 31t58 11.5t58 -11.5t46.5 -31t30.5 -46t11 -57.5z" />
    <glyph glyph-name="cent" unicode="&#xa2;" 
d="M535 293q-11 -88 -65 -139.5t-136 -61.5v-92h-69v92q-51 5 -92.5 27t-70 57t-44 80.5t-15.5 97.5q0 54 15 101t43.5 83.5t69.5 60t94 29.5v92h69v-91q39 -4 74 -17.5t61.5 -37t43.5 -57t22 -75.5h-105q-7 51 -40.5 79t-84.5 28q-43 0 -72 -16.5t-47 -43.5t-26 -62.5
t-8 -72.5q0 -35 8 -68t25.5 -58.5t45.5 -41t68 -15.5q54 0 90.5 34t40.5 88h105v0z" />
    <glyph glyph-name="sterling" unicode="&#xa3;" horiz-adv-x="569" 
d="M567 68q-35 -38 -76 -61.5t-94 -23.5q-21 0 -40.5 4.5t-39 10.5l-39 12t-38.5 9q-50 8 -90 1t-81 -37l-49 66q22 16 42.5 35.5t36.5 41.5t25.5 47.5t9.5 54.5q0 22 -4 45t-15 42h-97v73h69q-18 31 -34 66.5t-16 71.5q0 52 20.5 90.5t55 64t78.5 38t92 12.5
q119 0 185.5 -64.5t63.5 -184.5h-107q3 34 -5 63t-26 50.5t-45 34t-63 12.5q-27 0 -51.5 -6.5t-43 -20t-29.5 -35t-11 -51.5q0 -18 6 -36t14 -36t17.5 -35t17.5 -33h134v-74h-113q10 -18 13.5 -38.5t3.5 -40.5q0 -45 -21.5 -83.5t-56.5 -65.5q32 23 73 23q22 0 43.5 -6
t42.5 -13t41.5 -13t41.5 -6q19 0 35 6.5t29.5 17t25.5 23.5t23 27l46 -78v0z" />
    <glyph glyph-name="section" unicode="&#xa7;" horiz-adv-x="592" 
d="M451 238q0 32 -14.5 51.5t-37 32t-49.5 19.5l-52 13q-20 5 -40 9.5t-40 9.5q-32 -13 -54.5 -36.5t-22.5 -60.5q0 -32 14.5 -52t37 -32t49.5 -19l52 -13q20 -5 40 -9.5t40 -9.5q32 13 54.5 36.5t22.5 60.5zM573 -38q0 -53 -24.5 -88t-62.5 -57t-84.5 -31t-90.5 -9
q-51 0 -99 9.5t-86 32.5t-62 61.5t-27 96.5h117q1 -33 14 -57t34 -39.5t48 -23t58 -7.5q24 0 49.5 5t46.5 17t34 31.5t13 48.5q0 37 -29.5 59.5t-70 36t-83 21t-69.5 15.5q-35 10 -67.5 23t-57.5 33.5t-40 49.5t-15 71q0 50 20.5 87t59.5 66q-41 24 -60.5 57t-19.5 81
q0 52 24.5 87.5t62.5 57.5t84.5 31t90.5 9q51 0 99 -9.5t86 -32.5t62 -61.5t27 -96.5h-116q-2 33 -14.5 57t-33.5 39.5t-48.5 23t-58.5 7.5q-24 0 -49.5 -5t-46.5 -17t-34 -31.5t-13 -48.5q0 -37 29.5 -59.5t70 -36t83 -21.5t69.5 -15q35 -10 67.5 -23t57.5 -33.5t40 -49.5
t15 -71q0 -50 -20 -87t-60 -66q42 -24 61 -57t19 -81z" />
    <glyph glyph-name="bullet" unicode="&#x2022;" horiz-adv-x="342" 
d="M305 360q0 -28 -10.5 -52.5t-28.5 -42.5t-42.5 -28.5t-52.5 -10.5t-52.5 10.5t-42.5 28.5t-28.5 42.5t-10.5 52.5t10.5 52t28.5 42t42 28.5t52 10.5t52.5 -10.5t43 -28.5t29 -42t10.5 -52z" />
    <glyph glyph-name="paragraph" unicode="&#xb6;" horiz-adv-x="554" 
d="M422 -206v865h-84v-865h-78v558q-52 0 -93.5 13.5t-70 37.5t-44 57.5t-15.5 72.5q0 51 17 86.5t48 58t74 32.5t95 10h229v-926h-78z" />
    <glyph glyph-name="germandbls" unicode="&#xdf;" horiz-adv-x="570" 
d="M533 215q0 -53 -16 -94t-46 -68.5t-72.5 -41.5t-94.5 -14q-30 0 -58 3v87q15 -4 34 -4q69 0 106.5 36.5t37.5 105.5q0 42 -13 68.5t-35.5 41.5t-53 21t-65.5 6h-11v65h9q28 0 53 5.5t44 18.5t30 34.5t11 53.5q0 51 -33.5 79t-82.5 28q-58 0 -86 -33.5t-28 -89.5v-523
h-109v515q0 103 58.5 161.5t161.5 58.5q40 0 80 -11.5t71 -34t50.5 -56.5t19.5 -79q0 -57 -26.5 -96.5t-79.5 -57.5q36 -4 63 -20.5t45 -42t27 -57t9 -65.5z" />
    <glyph glyph-name="registered" unicode="&#xae;" horiz-adv-x="453" 
d="M276 587q0 20 -15 25.5t-32 5.5h-41v-64h42q18 0 32 6.5t14 26.5zM310 585q0 -27 -15 -40t-36 -15l54 -89h-36l-52 86h-37v-86h-33v204h75q39 0 59.5 -14t20.5 -46zM375 545q0 31 -11.5 58t-31.5 47t-47 31.5t-58 11.5t-58 -11.5t-47.5 -31.5t-32 -47t-11.5 -58t11.5 -58
t31.5 -47t47 -31.5t58 -11.5t58 11.5t47.5 31.5t32 47t11.5 58zM416 545q0 -39 -15 -73t-40.5 -59.5t-60 -40t-73.5 -14.5t-74 14.5t-60.5 40t-40.5 59.5t-15 73t15 73t40.5 59.5t60 40t73.5 14.5t74 -14.5t60.5 -40t40.5 -59.5t15 -73z" />
    <glyph glyph-name="copyright" unicode="&#xa9;" horiz-adv-x="822" 
d="M599 296q-14 -76 -63.5 -117.5t-116.5 -41.5q-48 0 -86.5 17t-66.5 46.5t-43 69.5t-15 86q0 47 14.5 87t41.5 69.5t65.5 46t86.5 16.5q34 0 64.5 -9.5t54.5 -29t40 -48t22 -66.5h-58q-8 46 -41.5 69t-79.5 23q-69 0 -107 -43.5t-38 -112.5q0 -34 10.5 -63t29.5 -50.5
t46 -34t60 -12.5q43 0 76.5 24t43.5 73h60v1zM713 360q0 63 -23.5 118.5t-64 97.5t-96 66t-118.5 24t-118 -24t-96 -65.5t-64.5 -97.5t-23.5 -119t23.5 -118.5t64 -97.5t96 -66t118.5 -24t118 24t96 65.5t64.5 97.5t23.5 119zM785 360q0 -78 -29.5 -146t-80 -118.5
t-118.5 -80t-146 -29.5t-146 29.5t-118.5 80t-80 118.5t-29.5 146t29.5 146t80 118.5t118.5 80t146 29.5t146 -29.5t118.5 -80t80 -118.5t29.5 -146z" />
    <glyph glyph-name="trademark" unicode="&#x2122;" horiz-adv-x="862" 
d="M231 660v-336h-71v336h-36q-24 0 -31 -8.5t-7 -26.5l-48 24q0 14 2.5 27t10 22.5t20.5 15.5t35 6h247v-60h-122zM738 324v270q0 32 -11.5 55.5t-46.5 23.5t-46.5 -23.5t-11.5 -55.5v-270h-70v270q0 32 -11.5 55.5t-46.5 23.5t-46.5 -23.5t-11.5 -55.5v-270h-70v280
q0 62 32.5 93.5t95.5 31.5q30 0 53.5 -8.5t39.5 -28.5q17 20 40.5 28.5t52.5 8.5q63 0 95.5 -31.5t32.5 -93.5v-280h-70z" />
    <glyph glyph-name="acute" unicode="&#xb4;" horiz-adv-x="0" 
d="M253 567h-76l115 147h120z" />
    <glyph glyph-name="dieresis" unicode="&#xa8;" horiz-adv-x="0" 
d="M470 624q0 -14 -6 -26t-16 -20t-23 -12.5t-26 -4.5q-27 0 -49.5 17t-22.5 46t22.5 46t49.5 17q26 0 48.5 -17.5t22.5 -45.5zM261 624q0 -14 -6 -26t-16 -20t-23 -12.5t-26 -4.5q-27 0 -49.5 17t-22.5 46t22.5 46t49.5 17q26 0 48.5 -17.5t22.5 -45.5z" />
    <glyph glyph-name="notequal" unicode="&#x2260;" horiz-adv-x="595" 
d="M45 317v86h505v-86h-505z" />
    <glyph glyph-name="AE" unicode="&#xc6;" horiz-adv-x="904" 
d="M392 492q0 30 -4.5 57t-16.5 48t-33.5 33t-54.5 12t-54.5 -12.5t-33.5 -33t-16.5 -47.5t-4.5 -56v-85h218v84zM392 0v313h-218v-313h-120v511q0 112 58.5 169t170.5 57q118 0 172 -68v51h396v-101h-339v-211h309v-95h-309v-211h347v-102h-467z" />
    <glyph glyph-name="Oslash" unicode="&#xd8;" horiz-adv-x="765" 
d="M608 357q0 51 -11.5 93.5t-32.5 75.5l-340 -375q31 -35 71.5 -52t86.5 -17t87.5 17t72 51.5t48.5 86t18 120.5zM542 562q-32 35 -72.5 52.5t-86.5 17.5q-47 0 -88 -17t-71.5 -51.5t-48.5 -86t-18 -120.5q0 -103 45 -171l340 376v0zM728 357q0 -79 -23.5 -147t-68 -118.5
t-108.5 -79.5t-145 -29q-72 0 -130 23t-101 65l-78 -87l-31 27l80 87q-42 51 -64 116.5t-22 142.5q0 79 23.5 147t68 118.5t108.5 79.5t145 29q72 0 130.5 -23.5t102.5 -65.5l72 79l31 -25l-75 -82q42 -49 63.5 -114.5t21.5 -142.5z" />
    <glyph glyph-name="infinity" unicode="&#x221e;" horiz-adv-x="195" 
d="M54 0v268h87v-268h-87zM54 452v268h87v-267z" />
    <glyph glyph-name="plusminus" unicode="&#xb1;" horiz-adv-x="595" 
d="M45 107v87h505v-87h-505zM341 387v-140h-87v140h-209v86h209v140h86v-139h210v-87h-209z" />
    <glyph glyph-name="lessequal" unicode="&#x2264;" horiz-adv-x="615" 
d="M600 204q0 -60 -24 -102t-64 -68.5t-90.5 -38.5t-103.5 -12q-45 0 -98.5 11.5t-99.5 40.5t-77 78.5t-31 126.5h120q0 -46 15 -78t41 -52t61.5 -29t77.5 -9q28 0 55.5 6.5t49 21t35 37.5t13.5 56q0 34 -15 55t-42 34.5t-64 23l-81 20.5q-43 11 -86 23.5t-77.5 34t-56 55
t-21.5 86.5q0 58 23 98t60.5 65.5t85.5 37t97 11.5q55 0 104 -12t86 -38.5t59.5 -70t25.5 -106.5h-114q0 37 -13 63.5t-35 43t-51.5 24t-61.5 7.5q-25 0 -52 -5t-49.5 -17.5t-36.5 -33t-14 -51.5q0 -34 20 -55t52 -34.5t72 -23t82 -20.5q44 -11 84.5 -24.5t71 -36t49 -57
t18.5 -86.5zM355 778h-89l-118 144h83l80 -100l78 100h84z" />
    <glyph glyph-name="greaterequal" unicode="&#x2265;" horiz-adv-x="503" 
d="M480 151q0 -47 -20 -78t-52.5 -50.5t-72.5 -27.5t-80 -8q-48 0 -90.5 10.5t-74 33t-50 57.5t-19.5 85h104q2 -59 37.5 -87t95.5 -28q19 0 39.5 4.5t37.5 14t28.5 25t11.5 37.5t-9.5 36.5t-28 24.5t-45 16.5t-60.5 13.5q-44 9 -80 20t-61.5 28t-39.5 42t-14 62
q0 35 16.5 62.5t44.5 46t66 28.5t82 10q42 0 81.5 -8t70 -27.5t49 -51t19.5 -77.5h-101q0 51 -34 75t-82 24q-32 0 -53 -8t-33 -19.5t-16.5 -24t-4.5 -22.5q0 -27 22.5 -43.5t53 -26.5t63.5 -16t54 -12q27 -8 53 -18t46.5 -26t33 -40t12.5 -58v1zM297 580h-89l-118 145h83
l80 -100l78 100h84z" />
    <glyph glyph-name="yen" unicode="&#xa5;" 
d="M512 568q0 -95 -42.5 -150t-126.5 -68v-67h149v-71h-149v-68h149v-71h-149v-73h-120v73h-149v71h149v68h-149v71h149v67q-85 13 -127 68.5t-42 149.5v152h120v-133q0 -30 4.5 -57t16.5 -47.5t33.5 -33t54.5 -12.5t54.5 12.5t33.5 33t16.5 47.5t4.5 57v133h120v-152v0z
" />
    <glyph glyph-name="mu" unicode="&#xb5;" horiz-adv-x="573" 
d="M410 0v92q-17 -45 -52.5 -69.5t-80.5 -28.5q-36 -3 -65 7.5t-49 31.5v-239h-109v723h109v-305q0 -29 6 -53.5t19.5 -43t35.5 -29t53 -10.5q34 0 59 13t41.5 35t24.5 50.5t8 59.5v283h109v-517h-109z" />
    <glyph glyph-name="partialdiff" unicode="&#x2202;" horiz-adv-x="573" 
d="M519 4q0 -45 -11 -86.5t-39 -72.5t-74.5 -49.5t-117.5 -18.5q-42 0 -82.5 8t-73 27.5t-53.5 52t-25 80.5h108q6 -48 41.5 -74t80.5 -26q35 0 61 12t43 32.5t25 48.5t8 60v94q-26 -54 -70.5 -79.5t-104.5 -25.5q-83 0 -132 49t-49 132v349h109v-305q0 -29 6 -53.5
t19.5 -43t35.5 -29t53 -10.5q34 0 59 13t41.5 35t24.5 50.5t8 59.5v283h109v-513v0zM263 578h-76l115 147h120z" />
    <glyph glyph-name="summation" unicode="&#x2211;" horiz-adv-x="597" 
d="M602 124q0 -24 -4.5 -46t-17 -39.5t-36 -28t-62.5 -10.5h-470v99l421 519h-393v102h548v-93l-423 -526h284q23 0 37 4.5t22 12.5t10.5 20t2.5 26l81 -40v0zM354 778h-90l-118 144h84l79 -100l78 100h84z" />
    <glyph glyph-name="product" unicode="&#x220f;" horiz-adv-x="568" 
d="M417 392q0 67 -40.5 95t-109.5 28h-93v-248h86q31 0 59.5 6.5t50.5 21.5t34.5 39t12.5 58zM531 397q0 -56 -18.5 -98t-52.5 -70t-80.5 -42t-101.5 -14h-104v-173h-120v720h120v-104h117q62 0 107 -18t74.5 -48.5t44 -70t14.5 -82.5z" />
    <glyph glyph-name="pi" unicode="&#x3c0;" horiz-adv-x="623" 
d="M477 252q0 39 -9 74t-29.5 62t-53 43t-80.5 16q-22 0 -47 -8t-46 -22t-35 -33.5t-14 -43.5v-149q0 -29 13 -51.5t34 -38.5t47.5 -24t53.5 -8q42 0 73.5 14t52 38.5t30.5 58t10 73.5v-1zM586 253q0 -57 -18.5 -105.5t-52 -84.5t-80 -56t-103.5 -20q-54 0 -97 19.5
t-72 54.5v-267h-109v926h109v-258q29 33 71.5 50t90.5 17q60 0 108.5 -21t82.5 -58.5t52 -88t18 -108.5z" />
    <glyph glyph-name="integral" unicode="&#x222b;" horiz-adv-x="732" 
d="M424 778h-90l-118 144h84l79 -100l78 100h84zM695 280q-5 -66 -30 -120.5t-66 -93.5t-97 -61t-122 -22q-81 0 -144.5 29.5t-108 80.5t-67.5 119t-23 145q0 79 23.5 148.5t68 121t109.5 81t148 29.5q58 0 112 -17t96 -50t69 -81t32 -109h-118q-4 36 -21.5 65.5t-44.5 50
t-60 31.5t-68 11q-59 0 -101.5 -24.5t-70 -64.5t-41 -90t-13.5 -102q0 -50 13 -99t40 -88t68 -63.5t98 -24.5q46 0 80.5 15t59.5 42t40 63t21 78h118v0z" />
    <glyph glyph-name="ordfeminine" unicode="&#xaa;" horiz-adv-x="416" 
d="M292 618q0 13 -8 24.5t-20.5 19.5t-27.5 12.5t-28 4.5q-28 0 -47 -9t-31 -24.5t-17 -36t-5 -43.5q0 -47 23.5 -76.5t73.5 -29.5q16 0 31.5 4.5t28 13.5t20 22t7.5 30v88zM292 415v30q-40 -38 -99 -38q-35 0 -63.5 12t-48.5 33.5t-31.5 50.5t-11.5 63q0 35 11 65.5
t31.5 53t49.5 35t66 12.5q27 0 51.5 -8.5t44.5 -25.5v27h69v-310h-69z" />
    <glyph glyph-name="ordmasculine" unicode="&#xba;" horiz-adv-x="394" 
d="M288 570q0 19 -5 38.5t-16.5 35t-28.5 25.5t-41 10t-41 -10t-28.5 -25.5t-16.5 -35t-5 -38.5q0 -20 5 -40t16.5 -35.5t28.5 -25.5t41 -10t41 10t28.5 25.5t16.5 35.5t5 40zM357 570q0 -32 -10 -62t-29.5 -52.5t-50 -36t-70.5 -13.5t-70 13.5t-50 36t-30 52.5t-10 62
t10 61t30 51.5t50 36t70 13.5t70.5 -13.5t50 -36t29.5 -51.5t10 -61z" />
    <glyph glyph-name="Omega" unicode="&#x2126;" horiz-adv-x="482" 
d="M482 106q0 -20 -4 -39t-15.5 -34t-32 -24t-53.5 -9h-366v89l302 345h-278v83h415v-89l-299 -346h200q42 0 53.5 15.5t11.5 41.5l66 -33v0zM286 580h-89l-118 145h83l80 -100l78 100h84z" />
    <glyph glyph-name="ae" unicode="&#xe6;" horiz-adv-x="989" 
d="M460 340q0 24 -14 43.5t-35 33.5t-46 22t-47 8q-48 0 -80.5 -16t-53 -43t-29.5 -62t-9 -73q0 -40 10 -73.5t30.5 -58t52 -38.5t73.5 -14q27 0 53.5 8t47.5 24t34 38.5t13 51.5v149zM839 366q-12 38 -42.5 59.5t-73.5 21.5q-39 0 -67 -13.5t-46.5 -36.5t-28 -53t-10.5 -64
v-12l268 98v0zM952 191q-6 -48 -25.5 -86t-51 -64.5t-72 -40t-88.5 -13.5q-58 0 -101 24.5t-70 63.5v-75h-84v61q-29 -35 -71.5 -54.5t-96.5 -19.5q-57 0 -104 20t-80.5 55.5t-52 84t-18.5 105.5q0 59 18 109.5t52 88t82 58.5t108 21q49 0 91.5 -17t71.5 -50v55h84v-81
q27 42 70.5 67.5t105.5 25.5q44 0 84 -12t71.5 -36t51.5 -59.5t25 -81.5l-379 -138q4 -27 15 -51.5t28.5 -42.5t42.5 -28.5t57 -10.5q54 0 90.5 34t41.5 88h104v0z" />
    <glyph glyph-name="oslash" unicode="&#xf8;" horiz-adv-x="589" 
d="M443 258q0 59 -26 108l-229 -247q17 -23 43.5 -36.5t62.5 -13.5q40 0 68 16.5t46 43.5t26.5 60.5t8.5 68.5zM400 398q-17 23 -43.5 36t-61.5 13q-40 0 -68.5 -16.5t-46.5 -43.5t-26 -60.5t-8 -67.5q0 -29 6 -57t19 -52l229 248v0zM552 259q0 -54 -16 -103t-48 -86.5
t-80.5 -60t-113.5 -22.5q-54 0 -95.5 16.5t-72.5 44.5l-56 -62l-25 24l57 61q-33 37 -49 85.5t-16 101.5t16 102t48 86.5t80 60t113 22.5q54 0 95.5 -16t72.5 -45l48 53l25 -22l-48 -53q32 -37 48.5 -85t16.5 -102z" />
    <glyph glyph-name="questiondown" unicode="&#xbf;" horiz-adv-x="553" 
d="M516 235q0 -50 -15 -94.5t-46 -78.5t-77.5 -54t-109.5 -20q-57 0 -100 15.5t-72 41t-44 59t-15 70.5q-1 42 10.5 70.5t29 48t38.5 33.5l39 27q23 17 38 32t23.5 31.5t12 36.5t3.5 47v77h103v-77q0 -25 -2.5 -50.5t-11 -50t-25.5 -48.5t-45 -45l-25 -16t-31.5 -25
t-27.5 -35.5t-12 -47.5q0 -48 32.5 -73.5t84.5 -25.5q34 0 59 11.5t41.5 31.5t24 48t5.5 60h115v1zM354 668q0 -14 -6 -26t-16 -20t-23 -12.5t-26 -4.5q-27 0 -49.5 17t-22.5 46t22.5 46t49.5 17q26 0 48.5 -17.5t22.5 -45.5z" />
    <glyph glyph-name="exclamdown" unicode="&#xa1;" horiz-adv-x="217" 
d="M44 0l35 565h59l35 -565h-129zM180 669q0 -14 -6 -26t-16 -20t-23 -12.5t-26 -4.5q-27 0 -49.5 17t-22.5 46q0 28 22.5 45.5t48.5 17.5q27 0 49.5 -17t22.5 -46z" />
    <glyph glyph-name="logicalnot" unicode="&#xac;" horiz-adv-x="217" 
d="M163 403v-403h-109v318l-54 -45v64l54 44v339h109v-254l54 45v-64z" />
    <glyph glyph-name="radical" unicode="&#x221a;" horiz-adv-x="589" 
d="M443 249q0 35 -9 67t-27.5 57t-46.5 39.5t-66 14.5t-66 -14.5t-46 -39.5t-27 -57t-9 -66q0 -35 8.5 -67.5t26.5 -58t46 -40.5t67 -15t67 15t46 40.5t26.5 57.5t8.5 67h1zM552 273q0 -60 -16.5 -112.5t-49 -91t-80.5 -60.5t-112 -22q-59 0 -106.5 18.5t-81 53t-51.5 82
t-18 106.5q0 54 16.5 100t47.5 80.5t75 54t100 19.5q35 0 70 -12t59 -35q-23 38 -56 75.5t-67 66.5l-91 -51l-44 47l82 45q-15 13 -30.5 24t-32.5 21l79 48q14 -7 36.5 -22.5t33.5 -25.5l87 49l46 -46l-81 -45q40 -37 73.5 -78t58.5 -86.5t39 -96t14 -106.5z" />
    <glyph glyph-name="florin" unicode="&#x192;" horiz-adv-x="336" 
d="M365 645q-15 3 -44 3q-15 0 -27.5 -2.5t-23 -10t-18 -22t-12.5 -37.5l-12 -59h109l-20 -78h-109l-118 -522q-9 -41 -26 -65.5t-38.5 -38t-46.5 -18t-49 -4.5l-21 86q15 0 27.5 3t23 11t18.5 23t13 38l108 486h-109l18 71h109l22 100q9 40 26 65t38.5 38.5t46.5 18t50 4.5
q27 0 47 -2.5t40 -2.5z" />
    <glyph glyph-name="approxequal" unicode="&#x2248;" horiz-adv-x="453" 
d="M392 134l-166 166l-165 -166l-61 61l166 165l-166 166l61 60l165 -166l166 167l61 -61l-166 -166l166 -165z" />
    <glyph glyph-name="Delta" unicode="&#x2206;" 
d="M336 580h-89l-118 145h83l80 -100l78 100h84zM529 191q-6 -48 -25.5 -86t-51 -64.5t-72 -40t-88.5 -13.5q-58 0 -105 20.5t-80.5 56t-51.5 84t-18 104.5q0 58 18 109t51.5 88t82 58.5t108.5 21.5q44 0 84 -12t71.5 -36t51.5 -59.5t25 -81.5h-104q-7 51 -40.5 79t-84.5 28
q-43 0 -72.5 -16.5t-47.5 -43.5t-26 -62t-8 -72q0 -35 8 -68.5t25.5 -59t45.5 -41t68 -15.5q54 0 90.5 34t41.5 88h104v0z" />
    <glyph glyph-name="guillemotleft" unicode="&#xab;" horiz-adv-x="368" 
d="M45 312v96l133 134v-94l-81 -88l81 -86v-96zM190 312v96l133 134v-94l-81 -88l81 -86v-96z" />
    <glyph glyph-name="guillemotright" unicode="&#xbb;" horiz-adv-x="368" 
d="M45 178v94l81 88l-81 86v96l133 -134v-96zM190 178v94l81 88l-81 86v96l133 -134v-96z" />
    <glyph glyph-name="ellipsis" unicode="&#x2026;" horiz-adv-x="1000" 
d="M239 57q0 -29 -22.5 -46t-49.5 -17t-49.5 17t-22.5 46t22.5 46t49.5 17t49 -17t22 -46h1zM572 57q0 -29 -22.5 -46t-49.5 -17t-49.5 17t-22.5 46t22.5 46t49.5 17t49 -17t22 -46h1zM905 57q0 -29 -22.5 -46t-49.5 -17t-49.5 17t-22.5 46t22.5 46t49.5 17t49.5 -17
t22.5 -46z" />
    <glyph glyph-name="Agrave" unicode="&#xc0;" 
d="M392 492q0 30 -4.5 57t-16.5 48t-33.5 33t-54.5 12t-54.5 -12.5t-33.5 -33t-16.5 -47.5t-4.5 -56v-85h218v84zM392 0v313h-218v-313h-120v511q0 112 58.5 169t170.5 57q114 0 171.5 -57.5t57.5 -168.5v-511h-120zM326 764l-156 147h119l113 -146z" />
    <glyph glyph-name="Atilde" unicode="&#xc3;" 
d="M392 492q0 30 -4.5 57t-16.5 48t-33.5 33t-54.5 12t-54.5 -12.5t-33.5 -33t-16.5 -47.5t-4.5 -56v-85h218v84zM392 0v313h-218v-313h-120v511q0 112 58.5 169t170.5 57q114 0 171.5 -57.5t57.5 -168.5v-511h-120zM458 883q0 -22 -6 -41.5t-17.5 -34.5t-29 -23.5
t-39.5 -8.5q-21 0 -40 7.5t-36 16.5t-33 16.5t-32 7.5q-20 0 -31.5 -17t-13.5 -34h-50q0 18 5.5 37.5t17 36t28 27t39.5 10.5q20 0 40 -8t38 -17l34 -17t28 -8q41 0 47 50h51v0z" />
    <glyph glyph-name="Otilde" unicode="&#xd5;" horiz-adv-x="765" 
d="M608 360q0 52 -13 102t-41 89t-70.5 63t-100.5 24q-59 0 -101.5 -24t-70.5 -63t-41 -89t-13 -102t13 -102t41 -89t70 -63t101 -24t101.5 24t70.5 63t41 89t13 102zM728 360q0 -78 -23.5 -146.5t-67.5 -120t-108.5 -81t-145.5 -29.5q-82 0 -146 29.5t-108.5 81t-68 120
t-23.5 146.5t23.5 146.5t67.5 120t108.5 81t145.5 29.5q82 0 146 -29.5t108.5 -81t68 -120t23.5 -146.5zM558 883q0 -22 -6 -41.5t-17.5 -34.5t-29 -23.5t-39.5 -8.5q-21 0 -40 7.5t-36 16.5t-33 16.5t-32 7.5q-20 0 -31.5 -17t-13.5 -34h-50q0 18 5.5 37.5t17 36t28 27
t39.5 10.5q20 0 40 -8t38 -17l34 -17t28 -8q41 0 47 50h51v0z" />
    <glyph glyph-name="OE" unicode="&#x152;" horiz-adv-x="1089" 
d="M577 480q-4 36 -21.5 65.5t-44.5 50t-60 31.5t-68 11q-59 0 -101.5 -24.5t-70 -64.5t-41 -90t-13.5 -102q0 -50 13 -99t40 -88t68 -63.5t98 -24.5q46 0 80.5 15t59.5 42t40 63t21 78v200zM592 0v102q-32 -54 -84.5 -86.5t-127.5 -32.5q-81 0 -144.5 29.5t-108 80.5
t-67.5 119t-23 145q0 79 23.5 148.5t68 121t109.5 81t148 29.5q29 0 58.5 -6t57 -17.5t50.5 -27.5t40 -37v71h450v-101h-340v-211h309v-95h-309v-211h347v-102h-457z" />
    <glyph glyph-name="oe" unicode="&#x153;" horiz-adv-x="972" 
d="M443 258q0 34 -8 68t-26 61t-46 43.5t-68 16.5t-68.5 -16.5t-46.5 -43.5t-26 -60.5t-8 -67.5q0 -35 8 -69t26 -61t46 -43.5t68 -16.5t68 16.5t46 43.5t26 60.5t8 68.5h1zM822 366q-12 38 -43 59.5t-74 21.5q-39 0 -67 -13.5t-46 -36.5t-27.5 -53.5t-10.5 -63.5
q0 -2 -0.5 -6t-0.5 -6l269 98v0zM935 191q-6 -48 -26 -86t-51 -64.5t-72 -40t-89 -13.5q-71 0 -121.5 33.5t-77.5 85.5q-27 -51 -78 -85t-126 -34q-65 0 -113 22.5t-80 60t-48 86.5t-16 102t16 102t48 86.5t80 60t113 22.5q76 0 127.5 -34.5t77.5 -88.5q28 54 78.5 88.5
t125.5 34.5q44 0 84 -12t71.5 -36t51.5 -59.5t25 -81.5l-379 -138q4 -28 15 -52t28.5 -42t42.5 -28.5t57 -10.5q54 0 90 34t41 88h105v0z" />
    <glyph glyph-name="endash" unicode="&#x2013;" horiz-adv-x="590" 
d="M45 223v89h500v-89h-500z" />
    <glyph glyph-name="emdash" unicode="&#x2014;" horiz-adv-x="1090" 
d="M45 223v89h1000v-89h-1000z" />
    <glyph glyph-name="quotedblleft" unicode="&#x201c;" horiz-adv-x="380" 
d="M151 427l-151 262l75 43l151 -262zM305 427l-151 262l75 43l151 -262z" />
    <glyph glyph-name="quotedblright" unicode="&#x201d;" horiz-adv-x="380" 
d="M75 427l-75 43l151 262l75 -43zM229 427l-75 43l151 262l75 -43z" />
    <glyph glyph-name="quoteleft" unicode="&#x2018;" horiz-adv-x="226" 
d="M151 427l-151 262l75 43l151 -262z" />
    <glyph glyph-name="quoteright" unicode="&#x2019;" horiz-adv-x="226" 
d="M75 427l-75 43l151 262l75 -43z" />
    <glyph glyph-name="divide" unicode="&#xf7;" horiz-adv-x="595" 
d="M369 151q0 -30 -19.5 -51t-51.5 -21t-52 21t-20 51t21 50.5t50 20.5q30 0 51 -21t21 -50zM45 317v86h505v-86h-505zM369 569q0 -29 -19.5 -50t-51.5 -21t-52 21t-20 50q0 30 21 51t50 21q30 0 51 -21t21 -51z" />
    <glyph glyph-name="lozenge" unicode="&#x25ca;" horiz-adv-x="609" 
d="M452 362q0 56 -13.5 103.5t-42 81.5t-72 53t-103.5 19h-47v-212h148v-71h-148v-235h44q59 0 103 20t73 55t43 82.5t14 103.5h1zM572 361q0 -84 -23 -150.5t-67.5 -113.5t-110 -72t-149.5 -25h-168v336h-59v71h59v313h204q82 0 141 -28t97.5 -76.5t57 -114t18.5 -140.5z
" />
    <glyph glyph-name="ydieresis" unicode="&#xff;" horiz-adv-x="573" 
d="M519 4q0 -45 -11 -86.5t-39 -72.5t-74.5 -49.5t-117.5 -18.5q-42 0 -82.5 8t-73 27.5t-53.5 52t-25 80.5h108q6 -48 41.5 -74t80.5 -26q35 0 61 12t43 32.5t25 48.5t8 60v94q-26 -54 -70.5 -79.5t-104.5 -25.5q-83 0 -132 49t-49 132v349h109v-305q0 -29 6 -53.5
t19.5 -43t35.5 -29t53 -10.5q34 0 59 13t41.5 35t24.5 50.5t8 59.5v283h109v-513v0zM258 635q0 -29 -22.5 -46t-49.5 -17q-13 0 -26 4.5t-23 12.5t-16 20t-6 26q0 28 22.5 45.5t48.5 17.5q27 0 49.5 -17t22.5 -46zM467 635q0 -29 -22.5 -46t-49.5 -17t-49 17t-22 46t22 46
t49 17t49.5 -17t22.5 -46z" />
    <glyph glyph-name="Ydieresis" unicode="&#x178;" 
d="M512 538q0 -95 -42.5 -150t-126.5 -68v-320h-120v320q-85 13 -127 68.5t-42 149.5v182h120v-163q0 -30 4.5 -57t16.5 -47.5t33.5 -33t54.5 -12.5t54.5 12.5t33.5 33t16.5 47.5t4.5 57v163h120v-182v0zM251 822q0 -14 -6 -26t-16 -20t-23 -12.5t-26 -4.5q-27 0 -49.5 17
t-22.5 46t22.5 46t49.5 17q26 0 48.5 -17.5t22.5 -45.5zM460 822q0 -14 -6 -26t-16 -20t-23 -12.5t-26 -4.5q-27 0 -49.5 17t-22.5 46t22.5 46t49.5 17q26 0 48.5 -17.5t22.5 -45.5z" />
    <glyph glyph-name="fraction" unicode="&#x2044;" horiz-adv-x="167" 
d="M-92 0h-66l415 720h67z" />
    <glyph glyph-name="currency" unicode="&#xa4;" horiz-adv-x="573" 
d="M454 344q0 37 -13.5 67.5t-37 53t-53.5 35t-63 12.5t-63.5 -12.5t-53.5 -35t-37 -53t-14 -67.5t14 -67.5t37 -53t53 -35t63 -12.5t63.5 12.5t53.5 35t37 53t14 67.5zM536 344q0 -42 -14 -83t-40 -69l58 -57l-45 -45l-58 59q-29 -27 -68 -41t-82 -14q-45 -1 -84 13t-68 41
l-59 -58l-45 44l59 58q-23 28 -38 68.5t-15 83.5q0 45 15 84.5t38 66.5l-59 57l46 46l57 -57q27 24 67.5 38.5t84.5 14.5t84 -14.5t67 -38.5l57 57l46 -45l-58 -57q24 -27 39 -67t15 -85z" />
    <glyph glyph-name="guilsinglleft" unicode="&#x2039;" horiz-adv-x="223" 
d="M45 312v96l133 134v-94l-81 -88l81 -86v-96z" />
    <glyph glyph-name="guilsinglright" unicode="&#x203a;" horiz-adv-x="223" 
d="M45 178v94l81 88l-81 86v96l133 -134v-96z" />
    <glyph glyph-name="fi" unicode="&#xfb01;" horiz-adv-x="434" 
d="M271 0v439h-108v-439h-109v438h-54v71h54v100q0 40 11 65t29.5 38.5t42 18t47.5 4.5q28 0 48.5 -2.5t40.5 -2.5v-85q-17 3 -45 3q-15 0 -27.5 -2t-20.5 -9t-12.5 -20.5t-4.5 -37.5v-62h217v-517h-109z" />
    <glyph glyph-name="fl" unicode="&#xfb02;" horiz-adv-x="434" 
d="M271 0v646q-9 1 -20.5 1.5t-22.5 0.5q-15 0 -27 -2.5t-20.5 -10t-13 -22t-4.5 -37.5v-59h54v-78h-54v-439h-109v438h-54v71h54v100q0 40 11 65t29.5 38.5t42 18t47.5 4.5q21 0 41.5 -5t39.5 -5q31 -1 56 -1q21 0 39 -0.5t20 -0.5v-723h-109z" />
    <glyph glyph-name="daggerdbl" unicode="&#x2021;" horiz-adv-x="582" 
d="M340 40l13 -246h-124l13 246l-197 -13v105l197 -13v320l-197 -13v105l197 -13l-13 202h124l-13 -202l197 13v-105l-197 13v-320l197 13v-104z" />
    <glyph glyph-name="periodcentered" unicode="&#xb7;" horiz-adv-x="217" 
d="M180 360q0 -14 -6 -26t-16 -20t-23 -12.5t-26 -4.5q-27 0 -49.5 17t-22.5 46q0 28 22.5 45.5t48.5 17.5q27 0 49.5 -17t22.5 -46z" />
    <glyph glyph-name="quotesinglbase" unicode="&#x201a;" horiz-adv-x="226" 
d="M75 -153l-75 43l151 261l75 -43z" />
    <glyph glyph-name="quotedblbase" unicode="&#x201e;" horiz-adv-x="382" 
d="M75 -153l-75 43l151 261l75 -43zM231 -153l-75 43l151 261l75 -43z" />
    <glyph glyph-name="perthousand" unicode="&#x2030;" 
d="M512 538q0 -95 -42.5 -150t-126.5 -68v-320h-120v320q-85 13 -127 68.5t-42 149.5v182h120v-163q0 -30 4.5 -57t16.5 -47.5t33.5 -33t54.5 -12.5t54.5 12.5t33.5 33t16.5 47.5t4.5 57v163h120v-182v0zM268 775h-76l116 147h119z" />
    <glyph glyph-name="Acircumflex" unicode="&#xc2;" 
d="M364 767l-80 100l-78 -100h-84l117 144h90l118 -144h-83zM392 492q0 30 -4.5 57t-16.5 48t-33.5 33t-54.5 12t-54.5 -12.5t-33.5 -33t-16.5 -47.5t-4.5 -56v-85h218v84zM392 0v313h-218v-313h-120v511q0 112 58.5 169t170.5 57q114 0 171.5 -57.5t57.5 -168.5v-511h-120z
" />
    <glyph glyph-name="Ecircumflex" unicode="&#xca;" 
d="M365 767l-80 100l-78 -100h-84l117 144h90l118 -144h-83zM54 0v720h460v-101h-340v-211h309v-95h-309v-211h347v-102h-467z" />
    <glyph glyph-name="Aacute" unicode="&#xc1;" 
d="M241 764h-76l116 147h119zM392 492q0 30 -4.5 57t-16.5 48t-33.5 33t-54.5 12t-54.5 -12.5t-33.5 -33t-16.5 -47.5t-4.5 -56v-85h218v84zM392 0v313h-218v-313h-120v511q0 112 58.5 169t170.5 57q114 0 171.5 -57.5t57.5 -168.5v-511h-120z" />
    <glyph glyph-name="Edieresis" unicode="&#xcb;" 
d="M459 822q0 -14 -6 -26t-16 -20t-23 -12.5t-26 -4.5q-27 0 -49.5 17t-22.5 46t22.5 46t49.5 17q26 0 48.5 -17.5t22.5 -45.5zM250 822q0 -14 -6 -26t-16 -20t-23 -12.5t-26 -4.5q-27 0 -49.5 17t-22.5 46t22.5 46t49.5 17q26 0 48.5 -17.5t22.5 -45.5zM54 0v720h460v-101
h-340v-211h309v-95h-309v-211h347v-102h-467z" />
    <glyph glyph-name="Egrave" unicode="&#xc8;" 
d="M156 911h119l113 -146h-76zM54 0v720h460v-101h-340v-211h309v-95h-309v-211h347v-102h-467z" />
    <glyph glyph-name="Iacute" unicode="&#xcd;" horiz-adv-x="228" 
d="M77 764h-76l116 147h119zM54 0v720h120v-720h-120z" />
    <glyph glyph-name="Icircumflex" unicode="&#xce;" horiz-adv-x="228" 
d="M195 767l-80 100l-78 -100h-84l117 144h90l118 -144h-83zM54 0v720h120v-720h-120z" />
    <glyph glyph-name="Idieresis" unicode="&#xcf;" horiz-adv-x="228" 
d="M294 822q0 -14 -6 -26t-16 -20t-23 -12.5t-26 -4.5q-27 0 -49.5 17t-22.5 46t22.5 46t49.5 17q26 0 48.5 -17.5t22.5 -45.5zM85 822q0 -14 -6 -26t-16 -20t-23 -12.5t-26 -4.5q-27 0 -49.5 17t-22.5 46t22.5 46t49.5 17q26 0 48.5 -17.5t22.5 -45.5zM54 0v720h120v-720
h-120z" />
    <glyph glyph-name="Igrave" unicode="&#xcc;" horiz-adv-x="228" 
d="M-9 911h119l113 -146h-76zM54 0v720h120v-720h-120z" />
    <glyph glyph-name="Oacute" unicode="&#xd3;" horiz-adv-x="765" 
d="M356 764h-76l116 147h119zM608 360q0 52 -13 102t-41 89t-70.5 63t-100.5 24q-59 0 -101.5 -24t-70.5 -63t-41 -89t-13 -102t13 -102t41 -89t70 -63t101 -24t101.5 24t70.5 63t41 89t13 102zM728 360q0 -78 -23.5 -146.5t-67.5 -120t-108.5 -81t-145.5 -29.5
q-82 0 -146 29.5t-108.5 81t-68 120t-23.5 146.5t23.5 146.5t67.5 120t108.5 81t145.5 29.5q82 0 146 -29.5t108.5 -81t68 -120t23.5 -146.5z" />
    <glyph glyph-name="Ocircumflex" unicode="&#xd4;" horiz-adv-x="765" 
d="M459 767l-80 100l-78 -100h-84l117 144h90l118 -144h-83zM608 360q0 52 -13 102t-41 89t-70.5 63t-100.5 24q-59 0 -101.5 -24t-70.5 -63t-41 -89t-13 -102t13 -102t41 -89t70 -63t101 -24t101.5 24t70.5 63t41 89t13 102zM728 360q0 -78 -23.5 -146.5t-67.5 -120
t-108.5 -81t-145.5 -29.5q-82 0 -146 29.5t-108.5 81t-68 120t-23.5 146.5t23.5 146.5t67.5 120t108.5 81t145.5 29.5q82 0 146 -29.5t108.5 -81t68 -120t23.5 -146.5z" />
    <glyph glyph-name="apple" unicode="&#xf8ff;" 
d="M566 124q0 -24 -4.5 -46t-17 -39.5t-36 -28t-62.5 -10.5h-392v234l-54 -38v77l54 38v409h120v-326l174 121v-77l-174 -121v-216h239q23 0 37 4.5t22 12.5t10.5 20t2.5 26l81 -40v0z" />
    <glyph glyph-name="Ograve" unicode="&#xd2;" horiz-adv-x="765" 
d="M225 911h119l113 -146h-77zM608 360q0 52 -13 102t-41 89t-70.5 63t-100.5 24q-59 0 -101.5 -24t-70.5 -63t-41 -89t-13 -102t13 -102t41 -89t70 -63t101 -24t101.5 24t70.5 63t41 89t13 102zM728 360q0 -78 -23.5 -146.5t-67.5 -120t-108.5 -81t-145.5 -29.5
q-82 0 -146 29.5t-108.5 81t-68 120t-23.5 146.5t23.5 146.5t67.5 120t108.5 81t145.5 29.5q82 0 146 -29.5t108.5 -81t68 -120t23.5 -146.5z" />
    <glyph glyph-name="Uacute" unicode="&#xda;" 
d="M255 764h-76l115 147h119zM512 209q0 -112 -58.5 -169t-170.5 -57q-114 0 -171.5 57.5t-57.5 168.5v511h120v-492q0 -30 4.5 -57t16.5 -48t33.5 -33t54.5 -12t54.5 12.5t33.5 33t16.5 47.5t4.5 56v493h120v-511v0z" />
    <glyph glyph-name="Ucircumflex" unicode="&#xdb;" 
d="M360 767l-80 100l-78 -100h-84l117 144h90l118 -144h-83zM512 209q0 -112 -58.5 -169t-170.5 -57q-114 0 -171.5 57.5t-57.5 168.5v511h120v-492q0 -30 4.5 -57t16.5 -48t33.5 -33t54.5 -12t54.5 12.5t33.5 33t16.5 47.5t4.5 56v493h120v-511v0z" />
    <glyph glyph-name="Ugrave" unicode="&#xd9;" 
d="M164 911h118l113 -146h-76zM512 209q0 -112 -58.5 -169t-170.5 -57q-114 0 -171.5 57.5t-57.5 168.5v511h120v-492q0 -30 4.5 -57t16.5 -48t33.5 -33t54.5 -12t54.5 12.5t33.5 33t16.5 47.5t4.5 56v493h120v-511v0z" />
    <glyph glyph-name="dotlessi" unicode="&#x131;" horiz-adv-x="217" 
d="M54 0v517h109v-517h-109z" />
    <glyph glyph-name="circumflex" unicode="&#x2c6;" horiz-adv-x="0" 
d="M373 569l-80 100l-77 -100h-84l117 145h89l119 -144z" />
    <glyph glyph-name="tilde" unicode="&#x2dc;" horiz-adv-x="0" 
d="M458 685q-1 -43 -24 -75t-68 -32q-21 0 -40 7.5t-36 16.5t-33 16.5t-32 7.5q-19 0 -31 -17.5t-14 -34.5h-49q0 18 5 37.5t16.5 36t28.5 27t40 10.5q20 0 39.5 -7.5t37.5 -17t34 -17t28 -7.5q20 0 32.5 13t14.5 36h51v0z" />
    <glyph glyph-name="macron" unicode="&#xaf;" horiz-adv-x="0" 
d="M151 593v56h286v-55z" />
    <glyph glyph-name="breve" unicode="&#x2d8;" horiz-adv-x="0" 
d="M447 708q-3 -32 -16 -56t-33.5 -40.5t-47.5 -25t-58 -8.5q-65 0 -105 33.5t-45 96.5h49q2 -18 12 -32.5t24 -24.5t31.5 -15t35.5 -5q37 0 67.5 18.5t35.5 58.5h50v0z" />
    <glyph glyph-name="dotaccent" unicode="&#x2d9;" horiz-adv-x="0" 
d="M366 624q0 -29 -22.5 -46t-49.5 -17q-13 0 -26 4.5t-23 12.5t-16 20t-6 26q0 28 22.5 46t48.5 18q27 0 49.5 -17.5t22.5 -46.5z" />
    <glyph glyph-name="ring" unicode="&#x2da;" horiz-adv-x="0" 
d="M355 669q0 24 -18 42.5t-42 18.5t-42.5 -18t-18.5 -42q0 -25 18 -43t42 -18q25 0 42.5 18t17.5 43zM395 670q0 -21 -8 -39t-21.5 -32t-31.5 -22t-39 -8t-39 8t-32 21.5t-22 31.5t-8 39t8 39t21.5 32t32 22t38.5 8t38.5 -8t32.5 -21.5t22 -32t8 -38.5z" />
    <glyph glyph-name="cedilla" unicode="&#xb8;" horiz-adv-x="0" 
d="M407 -125q0 -24 -10 -40t-26.5 -25.5t-37 -13.5t-41.5 -4q-33 0 -58.5 7t-51.5 16l15 33q20 -6 39 -12.5t40 -6.5q23 0 44 9.5t21 35.5q0 20 -16.5 29t-32.5 9q-27 0 -46 -12l-21 17l57 83h39l-41 -61q17 7 39 7q16 0 32 -4t28.5 -12.5t20 -22t7.5 -32.5z" />
    <glyph glyph-name="hungarumlaut" unicode="&#x2dd;" horiz-adv-x="0" 
d="M156 567h-63l116 147h99zM343 567h-62l115 147h99z" />
    <glyph glyph-name="ogonek" unicode="&#x2db;" horiz-adv-x="0" 
d="M395 -148q-16 -33 -44.5 -45t-58.5 -12q-42 0 -70.5 18.5t-28.5 50.5q0 20 11 39.5t27.5 37t35 32.5l34.5 27h51q-53 -44 -74.5 -72.5t-21.5 -53.5q0 -18 11.5 -30t33.5 -12q23 0 36 7.5t20 18.5l38 -6v0z" />
    <glyph glyph-name="caron" unicode="&#x2c7;" horiz-adv-x="0" 
d="M339 580h-89l-118 145h83l80 -100l78 100h84z" />
    <glyph glyph-name="NULL" horiz-adv-x="0" 
 />
    </font>
</defs>
</svg>
