<?xml version="1.0" standalone="no"?>
<!DOCTYPE svg PUBLIC "-//W3C//DTD SVG 1.1//EN" "http://www.w3.org/Graphics/SVG/1.1/DTD/svg11.dtd" >
<svg>
<metadata>
Created by FontForge 20090622 at Wed Jan 18 16:48:10 2017
 By ffonts
\2512003 Prescott Design. All rights reserved.
</metadata>
<defs>
<font id="ClementePDak-SemiBold" horiz-adv-x="584" >
  <font-face 
    font-family="ClementePDak"
    font-weight="600"
    font-stretch="normal"
    units-per-em="1000"
    panose-1="0 0 0 0 0 0 0 0 0 0"
    ascent="800"
    descent="-200"
    x-height="517"
    cap-height="720"
    bbox="-307 -223 1051 951"
    underline-thickness="70"
    underline-position="16"
    unicode-range="U+000D-U+FB02"
  />
<missing-glyph horiz-adv-x="313" 
 />
    <glyph glyph-name=".notdef" horiz-adv-x="313" 
 />
    <glyph glyph-name="Eth" horiz-adv-x="637" 
d="M455 362q0 52 -13 95.5t-40 75t-67.5 48.5t-95.5 17h-40v-185h138v-83h-138v-208h42q55 0 95 18.5t66.5 50.5t39.5 76.5t13 95.5v-1zM600 361q0 -85 -23.5 -152t-68.5 -113.5t-111 -71t-151 -24.5h-192v329h-57v84h57v307h231q81 0 140.5 -27.5t98.5 -76t57.5 -114
t18.5 -141.5z" />
    <glyph glyph-name="Eth" horiz-adv-x="637" 
d="M455 362q0 52 -13 95.5t-40 75t-67.5 48.5t-95.5 17h-40v-185h138v-83h-138v-208h42q55 0 95 18.5t66.5 50.5t39.5 76.5t13 95.5v-1zM600 361q0 -85 -23.5 -152t-68.5 -113.5t-111 -71t-151 -24.5h-192v329h-57v84h57v307h231q81 0 140.5 -27.5t98.5 -76t57.5 -114
t18.5 -141.5z" />
    <glyph glyph-name="nonmarkingreturn" unicode="&#xd;" horiz-adv-x="0" 
 />
    <glyph glyph-name="space" unicode=" " horiz-adv-x="313" 
 />
    <glyph glyph-name="eth" unicode="&#xf0;" horiz-adv-x="601" 
d="M433 250q0 31 -7.5 60.5t-23.5 52t-41.5 36t-60.5 13.5t-60 -13.5t-41 -36t-23.5 -52t-7.5 -60.5t7.5 -60.5t23.5 -53t41 -37.5t60 -14q36 0 61 14t41 37.5t23.5 53t7.5 60.5zM564 279q0 -63 -16.5 -116.5t-49.5 -92.5t-82.5 -61t-115.5 -22q-60 0 -108.5 18t-83 51.5
t-53 82t-18.5 109.5q0 54 17 99.5t48 79.5t75.5 53t99.5 19q32 0 64.5 -9.5t55.5 -29.5q-20 34 -50 66.5t-61 58.5l-84 -46l-51 54l72 40q-27 25 -54 41l94 57q5 -3 14 -9l18.5 -12.5l18.5 -13l13 -9.5l78 44l53 -54l-71 -40q38 -36 70.5 -76t56 -85t37 -94t13.5 -103z" />
    <glyph glyph-name="Lslash" unicode="&#x141;" 
d="M584 134q0 -25 -4 -49t-17.5 -43t-38.5 -30.5t-66 -11.5h-404v225l-54 -37v90l54 38v404h145v-304l170 118v-91l-170 -118v-203h219q43 0 56.5 15t13.5 46l96 -49v0z" />
    <glyph glyph-name="lslash" unicode="&#x142;" horiz-adv-x="239" 
d="M185 406v-406h-131v304l-54 -44v73l54 44v343h131v-241l54 43v-73z" />
    <glyph glyph-name="Scaron" unicode="&#x160;" horiz-adv-x="626" 
d="M613 211q0 -63 -25.5 -106.5t-67 -70.5t-94.5 -39t-107 -12q-42 0 -95 10.5t-100 39t-79.5 78.5t-32.5 129h145q0 -41 13 -69.5t36 -46.5t55 -26.5t70 -8.5q24 0 48.5 6t44 18.5t32 33t12.5 50.5q0 29 -13 47t-37.5 30.5t-60 22l-79.5 21.5q-43 11 -86 24t-77.5 34.5
t-56 55t-21.5 87.5q0 58 23.5 99.5t61.5 68t86.5 38.5t99.5 12q56 0 106 -12t88.5 -39t61.5 -71t25 -107h-137q1 33 -11 56.5t-32 38t-46.5 21.5t-54.5 7q-21 0 -45 -4.5t-44 -15t-32.5 -28.5t-12.5 -45q1 -30 20.5 -49t50.5 -31.5t70.5 -21.5t80.5 -20q42 -11 81.5 -25
t69.5 -37t48 -57t18 -86zM370 774h-108l-118 146h99l74 -94l72 94h100z" />
    <glyph glyph-name="scaron" unicode="&#x161;" horiz-adv-x="520" 
d="M497 155q0 -48 -21 -80.5t-54.5 -52t-75.5 -27.5t-84 -8q-48 0 -91 10.5t-76 32.5t-52.5 57t-20.5 85h126q1 -52 34 -76.5t84 -24.5q16 0 34.5 4t34 12t25.5 21.5t10 32.5q0 20 -8.5 33t-25 21.5t-41.5 15t-59 12.5q-47 9 -84 21t-62.5 30t-39 43t-13.5 61q0 39 18 67.5
t48.5 47.5t70 28t81.5 9t82.5 -8t72.5 -27t51.5 -50.5t21.5 -78.5h-120q-2 45 -32 66.5t-72 21.5q-27 0 -45.5 -6.5t-29.5 -16t-16 -21.5t-5 -22q0 -24 23 -39t54.5 -24.5t64.5 -15t52 -11.5q27 -8 52 -18.5t44.5 -27t31.5 -40t12 -57.5zM315 578h-108l-119 145h100l73 -94
l73 94h100z" />
    <glyph glyph-name="Yacute" unicode="&#xdd;" 
d="M530 537q0 -97 -42 -153t-123 -72v-312h-145v312q-166 32 -166 225v183h145v-166q0 -25 3.5 -49.5t13.5 -44t28.5 -31.5t47.5 -12q30 0 48 12t28 31.5t13.5 44t3.5 49.5v166h145v-183v0zM278 773h-91l111 147h142z" />
    <glyph glyph-name="yacute" unicode="&#xfd;" horiz-adv-x="592" 
d="M538 9q0 -44 -10.5 -85.5t-38.5 -74t-76 -52.5t-124 -20q-44 0 -85.5 8t-75 27.5t-56 52t-26.5 81.5h130q6 -41 37.5 -64.5t71.5 -23.5q32 0 55 12t38 32t22 46t7 54v81q-29 -51 -72 -73.5t-101 -22.5q-82 0 -131 49t-49 131v350h131v-297q0 -26 5 -49t17 -40t31.5 -27
t48.5 -10q31 0 53.5 11.5t37 31.5t21.5 45.5t7 54.5v280h132v-508v0zM277 576h-91l112 147h141z" />
    <glyph glyph-name="Thorn" unicode="&#xde;" horiz-adv-x="587" 
d="M412 390q0 31 -10 52t-28.5 33.5t-44 18t-56.5 5.5h-74v-221h66q29 0 55.5 5.5t47 18.5t32.5 34.5t12 53.5zM550 395q0 -58 -19.5 -101.5t-54 -72t-82.5 -43t-105 -14.5h-90v-164h-145v720h145v-99h105q65 0 111.5 -19.5t76.5 -51t44 -72.5t14 -83z" />
    <glyph glyph-name="thorn" unicode="&#xfe;" horiz-adv-x="647" 
d="M479 254q0 37 -8.5 69.5t-27.5 56.5t-49.5 38t-74.5 14q-20 0 -43.5 -7t-43.5 -19.5t-33.5 -30t-13.5 -39.5v-141q0 -26 12.5 -46.5t33 -34.5t45 -21.5t48.5 -7.5q80 0 117.5 47t37.5 122zM610 254q0 -58 -19.5 -107t-54 -84.5t-82.5 -55.5t-105 -20q-51 0 -93 17t-71 48
v-258h-131v926h131v-249q30 29 71 44t88 15q60 0 109 -21t84 -57.5t54 -87t19 -110.5z" />
    <glyph glyph-name="Zcaron" unicode="&#x17d;" horiz-adv-x="617" 
d="M620 134q0 -25 -4 -49t-17.5 -43t-38 -30.5t-65.5 -11.5h-480v118l400 480h-373v122h561v-110l-401 -488h253q42 0 55.5 15t13.5 46l96 -49v0zM372 774h-108l-118 146h99l74 -94l73 94h99z" />
    <glyph glyph-name="zcaron" unicode="&#x17e;" horiz-adv-x="500" 
d="M500 112q0 -21 -3.5 -41t-15 -36t-32.5 -25.5t-55 -9.5h-382v105l287 315h-263v97h430v-104l-283 -316h179q38 0 49.5 14t11.5 40l77 -39v0zM305 578h-109l-118 145h99l74 -94l73 94h99z" />
    <glyph glyph-name="onehalf" unicode="&#xbd;" horiz-adv-x="773" 
d="M756 77q0 -35 -15 -56t-57 -21h-255q-2 35 11 62.5t35 49.5t49 40.5l54 35.5q26 16 48.5 37.5t22.5 47.5q0 28 -16.5 44.5t-44.5 16.5q-40 0 -55.5 -27.5t-15.5 -69.5h-81q-3 77 37.5 121.5t115.5 44.5q28 0 54.5 -7t47 -22t33 -38t12.5 -55q0 -39 -21 -67.5t-50 -52.5
t-59.5 -45t-49.5 -43h108q20 0 25.5 7.5t4.5 27.5l62 -31v0zM182 0h-76l404 720h78zM134 324v319h-7q-17 0 -21 -9.5t-4 -26.5l-65 32q0 15 2.5 29.5t10.5 26t23 18.5t39 7h114v-396h-92z" />
    <glyph glyph-name="onequarter" unicode="&#xbc;" horiz-adv-x="757" 
d="M537 304l-105 -134h105v134zM720 175q0 -15 -2.5 -29t-10 -25t-21.5 -17.5t-38 -6.5h-23v-97h-88v97h-177v76l183 223h82v-226h9q17 0 20.5 9t3.5 26l62 -30v0zM182 0h-76l404 720h78zM134 324v319h-7q-17 0 -21 -9.5t-4 -26.5l-65 32q0 15 2.5 29.5t10.5 26t23 18.5
t39 7h114v-396h-92z" />
    <glyph glyph-name="onesuperior" unicode="&#xb9;" horiz-adv-x="280" 
d="M134 324v319h-7q-17 0 -21 -9.5t-4 -26.5l-65 32q0 15 2.5 29.5t10.5 26t23 18.5t39 7h114v-396h-92z" />
    <glyph glyph-name="threequarters" unicode="&#xbe;" horiz-adv-x="831" 
d="M611 304l-106 -134h106v134zM794 175q0 -15 -2.5 -29t-10 -25t-22 -17.5t-37.5 -6.5h-23v-97h-88v97h-178v76l183 223h83v-226h8q17 0 21 9t4 26l62 -30v0zM256 0h-77l405 720h78zM344 447q0 -31 -13.5 -54.5t-35.5 -39t-49.5 -23t-55.5 -7.5q-35 0 -66 9.5t-54 28.5
t-35 48.5t-8 69.5h82q-2 -44 18 -65.5t60 -21.5q29 0 49 15.5t20 44.5t-18.5 43t-47.5 14h-17v58h17q26 0 45 12t19 37q0 24 -20.5 36.5t-44.5 12.5q-32 0 -52 -19.5t-18 -55.5h-82q0 37 12 63.5t32.5 44t48.5 26t61 8.5q22 0 47 -6t46.5 -18.5t35.5 -32.5t14 -47
q0 -21 -10 -47t-36 -39q29 -11 42.5 -39.5t13.5 -55.5z" />
    <glyph glyph-name="threesuperior" unicode="&#xb3;" horiz-adv-x="373" 
d="M344 447q0 -31 -13.5 -54.5t-35.5 -39t-49.5 -23t-55.5 -7.5q-35 0 -66 9.5t-54 28.5t-35 48.5t-8 69.5h82q-2 -44 18 -65.5t60 -21.5q29 0 49 15.5t20 44.5t-18.5 43t-47.5 14h-17v58h17q26 0 45 12t19 37q0 24 -20.5 36.5t-44.5 12.5q-32 0 -52 -19.5t-18 -55.5h-82
q0 37 12 63.5t32.5 44t48.5 26t61 8.5q22 0 47 -6t46.5 -18.5t35.5 -32.5t14 -47q0 -21 -10 -47t-36 -39q29 -11 42.5 -39.5t13.5 -55.5z" />
    <glyph glyph-name="twosuperior" unicode="&#xb2;" horiz-adv-x="374" 
d="M357 407q0 -35 -15 -56.5t-57 -21.5h-255q-2 35 11 62.5t34.5 50t49 41l54.5 35.5q25 16 48 37t23 48t-16.5 43.5t-44.5 16.5q-40 0 -55.5 -27t-15.5 -69h-81q-3 77 37.5 121t115.5 44q28 0 54.5 -7t47 -22t33 -38t12.5 -54q0 -39 -21 -68t-50 -53t-59.5 -45t-49.5 -43
h108q20 0 25.5 7.5t4.5 27.5l62 -30v0z" />
    <glyph glyph-name="brokenbar" unicode="&#xa6;" horiz-adv-x="211" 
d="M54 0v266h103v-266h-103zM54 454v266h103v-266h-103z" />
    <glyph glyph-name="minus" unicode="&#x2212;" horiz-adv-x="595" 
d="M45 308v104h505v-104h-505z" />
    <glyph glyph-name="multiply" unicode="&#xd7;" horiz-adv-x="464" 
d="M391 128l-159 160l-159 -160l-73 73l159 159l-159 160l73 72l159 -160l159 161l73 -73l-160 -160l160 -159z" />
    <glyph glyph-name="exclam" unicode="!" horiz-adv-x="239" 
d="M202 60q0 -17 -7 -30t-19 -22.5t-26.5 -14.5t-29.5 -5t-30 5t-27 14.5t-19 22.5t-7 30q0 16 7 29.5t19 23t27 14.5t30 5t29.5 -5t26.5 -14.5t19 -23t7 -29.5zM154 172h-69l-43 548h154z" />
    <glyph glyph-name="quotedbl" unicode="&#x22;" horiz-adv-x="368" 
d="M54 399v321h103v-321h-103zM211 399v321h103v-321h-103z" />
    <glyph glyph-name="numbersign" unicode="#" horiz-adv-x="525" 
d="M216 414l-15 -108h108l15 108h-108zM513 414h-107l-15 -108h107l-11 -80h-107l-32 -226h-82l31 226h-107l-32 -226h-82l32 226h-108l11 80h108l15 108h-108l12 80h107l32 226h82l-31 -226h107l32 226h82l-32 -226h108z" />
    <glyph glyph-name="dollar" unicode="$" horiz-adv-x="520" 
d="M497 257q0 -43 -17 -73.5t-44.5 -50t-63.5 -29.5t-74 -13v-91h-80v92q-42 4 -77.5 16.5t-61.5 34.5t-41 54.5t-16 76.5h126q1 -53 34 -77t84 -24q16 0 34.5 3.5t34 12t25.5 21.5t10 33t-8.5 32.5t-25 21.5t-41.5 15t-59 13q-47 9 -84 21t-62.5 29.5t-39 43t-13.5 61.5
q0 33 13.5 59.5t37.5 45t57.5 30t72.5 14.5v91h80v-91q37 -3 70 -13t58.5 -29.5t40.5 -49t16 -70.5h-120q-2 45 -32 66.5t-72 21.5q-27 0 -45.5 -6.5t-29.5 -16t-16 -21.5t-5 -22q0 -24 23 -39t54.5 -24.5t64.5 -15t52 -11.5q27 -8 52 -18.5t44.5 -26.5t31.5 -39.5t12 -57.5
z" />
    <glyph glyph-name="percent" unicode="%" horiz-adv-x="774" 
d="M648 170q0 24 -3.5 46t-12.5 39t-24 27t-39 10t-39 -10.5t-24 -27.5t-12.5 -39t-3.5 -45q0 -22 3.5 -43.5t12.5 -38.5t24.5 -27.5t38.5 -10.5t38.5 10.5t24.5 27.5t12.5 38.5t3.5 43.5zM737 171q0 -39 -10 -72.5t-31 -58t-52.5 -38.5t-74.5 -14q-44 0 -75.5 14
t-51.5 38.5t-30 58t-10 71.5q0 40 10 74t30.5 58.5t52 38t74.5 13.5t74.5 -13.5t52.5 -38t31 -58.5t10 -74v1zM283 536q0 24 -3.5 46t-12.5 39t-24 27t-39 10t-39 -10.5t-23.5 -27.5t-12 -39t-3.5 -45q0 -22 3.5 -43.5t12.5 -38.5t24 -27.5t38 -10.5t38.5 10.5t24.5 27.5
t12.5 38.5t3.5 43.5zM216 0h-78l384 658h-190q20 -22 30 -52.5t10 -68.5q0 -39 -10 -72.5t-31 -58t-52.5 -38.5t-74.5 -14q-44 0 -75.5 14t-51.5 38.5t-30 58t-10 71.5q0 40 10 74t31 58.5t52.5 38t73.5 13.5h395v-62z" />
    <glyph glyph-name="ampersand" unicode="&#x26;" horiz-adv-x="789" 
d="M789 384q0 -24 -4 -46.5t-16.5 -40t-36 -28.5t-62.5 -11h-22q6 -71 -17.5 -122t-68.5 -84t-106.5 -48.5t-130.5 -15.5q-57 0 -112.5 13.5t-98.5 40.5t-69.5 68.5t-26.5 98.5q0 29 8.5 59.5t25.5 56t41.5 42.5t57.5 20q-32 4 -53.5 21t-35 40.5t-19.5 50.5t-6 50
q0 47 23.5 81.5t60 57t80.5 33.5t84 11q58 0 107 -15t84.5 -45t56 -75.5t20.5 -106.5h-125q1 32 -8.5 57.5t-28.5 43.5t-45 28t-57 10q-23 0 -46 -6t-42 -19t-30.5 -32t-11.5 -45q0 -27 11 -46.5t29 -32.5t41 -19t47 -6h20v-87h-20q-56 0 -93.5 -28.5t-37.5 -88.5
q0 -30 16.5 -53.5t42 -39t56 -24t59.5 -8.5q39 0 74.5 11.5t62 32.5t41.5 51.5t14 68.5h-29q-41 0 -54 -15.5t-13 -43.5l-90 46q0 23 4 45.5t17 40.5t36 29t62 11h177q41 0 54 15t13 44l90 -46v0z" />
    <glyph glyph-name="quotesingle" unicode="'" horiz-adv-x="211" 
d="M54 399v321h103v-321h-103z" />
    <glyph glyph-name="parenleft" unicode="(" horiz-adv-x="262" 
d="M148 -206q-28 57 -48.5 112.5t-34.5 112t-21 115.5t-7 123q0 122 28 238t83 225h114q-50 -113 -74.5 -226t-24.5 -237t25 -237t75 -226h-115z" />
    <glyph glyph-name="parenright" unicode=")" horiz-adv-x="262" 
d="M226 257q0 -122 -28 -238t-83 -225h-115q51 113 75.5 226.5t24.5 236.5q0 124 -25.5 237t-74.5 226h114q28 -57 49 -112.5t35 -112t21 -115.5t7 -123z" />
    <glyph glyph-name="asterisk" unicode="*" horiz-adv-x="375" 
d="M244 518l86 -104l-70 -51l-72 114l-73 -114l-70 51l86 104l-131 34l27 82l126 -49l-9 135h87l-8 -135l125 49l27 -82z" />
    <glyph glyph-name="plus" unicode="+" horiz-adv-x="595" 
d="M349 308v-201h-103v201h-201v104h201v201h103v-201h201v-104h-201z" />
    <glyph glyph-name="comma" unicode="," horiz-adv-x="250" 
d="M89 -166l-89 52l161 278l89 -51z" />
    <glyph glyph-name="hyphen" unicode="-" horiz-adv-x="351" 
d="M45 212v110h261v-110h-261z" />
    <glyph glyph-name="period" unicode="." horiz-adv-x="239" 
d="M202 60q0 -17 -7 -30t-19 -22.5t-26.5 -14.5t-29.5 -5t-30 5t-27 14.5t-19 22.5t-7 30q0 16 7 29.5t19 23t27 14.5t30 5t29.5 -5t26.5 -14.5t19 -23t7 -29.5z" />
    <glyph glyph-name="slash" unicode="/" horiz-adv-x="389" 
d="M103 0h-103l286 720h103z" />
    <glyph glyph-name="zero" unicode="0" horiz-adv-x="682" 
d="M494 360q0 38 -5.5 84.5t-22 87.5t-47 69t-79.5 28q-51 0 -81.5 -27.5t-47 -68.5t-22 -87.5t-5.5 -85.5q0 -38 5.5 -84.5t22 -87.5t47 -69t80.5 -28t80.5 27.5t47 68.5t22 88t5.5 85zM621 360q0 -65 -16 -131t-50.5 -119.5t-87.5 -87.5t-128 -34q-74 0 -127.5 34
t-87.5 87.5t-50 119.5t-16 131q0 64 16 130.5t50 120t87 87.5t128 34t128 -33.5t87.5 -87t50.5 -120t16 -131.5z" />
    <glyph glyph-name="one" unicode="1" horiz-adv-x="682" 
d="M272 0v598h-10q-43 0 -56.5 -15t-13.5 -46l-96 49q0 25 4 49t17.5 43t38.5 30.5t66 11.5h195v-720h-145z" />
    <glyph glyph-name="two" unicode="2" horiz-adv-x="682" 
d="M627 126q0 -29 -5 -52t-18.5 -39.5t-37 -25.5t-58.5 -9h-454q-3 59 21.5 107.5t63.5 88.5t87 73l94 63q24 15 48 33.5t43.5 39.5t32 45t12.5 51q0 55 -33 90t-90 35q-41 0 -68 -15.5t-43 -40.5t-22.5 -58t-6.5 -67h-125q-3 65 14 118t51.5 90.5t85 58t115.5 20.5
q51 0 97 -13t81.5 -39.5t56.5 -67t21 -96.5q0 -40 -13 -74.5t-34.5 -64.5t-50.5 -56.5t-61 -49.5l-108.5 -78t-81.5 -79h230q40 0 54 14.5t13 43.5l89 -46v0z" />
    <glyph glyph-name="three" unicode="3" horiz-adv-x="682" 
d="M616 209q0 -55 -23.5 -96.5t-61.5 -69t-86 -41.5t-98 -14q-62 0 -116.5 16.5t-94 50.5t-60.5 84.5t-15 118.5h127q-4 -77 35.5 -120.5t117.5 -43.5q28 0 53 8.5t44 24t29.5 39t10.5 53.5q0 60 -37.5 88.5t-93.5 28.5h-20v87h20q24 0 47 6t41 19t29 32.5t11 46.5
q0 26 -11.5 45t-30.5 32t-42 19t-46 6q-31 0 -57 -10t-45 -28t-29 -43.5t-8 -57.5h-125q0 61 20.5 106.5t56 75.5t84.5 45t107 15q40 0 84 -11t80.5 -33.5t60 -57t23.5 -81.5q0 -23 -6 -50t-19.5 -50.5t-35.5 -40.5t-53 -21q33 -3 58 -20t41.5 -42.5t25 -56t8.5 -59.5z" />
    <glyph glyph-name="four" unicode="4" horiz-adv-x="682" 
d="M354 590l-228 -294h228v294zM664 309q0 -24 -4 -46.5t-17 -40t-36 -28.5t-62 -11h-53v-183h-138v183h-323v126l327 411h133v-424h16q41 0 54 15t13 44l90 -46v0z" />
    <glyph glyph-name="five" unicode="5" horiz-adv-x="682" 
d="M551 548q1 35 -16.5 46.5t-50.5 11.5h-242l-44 -204q32 33 77 48.5t91 15.5q54 0 96.5 -17t72 -48t45.5 -74.5t16 -96.5q0 -61 -23 -106.5t-62 -75.5t-90.5 -45t-107.5 -15q-51 0 -101.5 13.5t-90.5 41.5t-63 71t-20 102h131q5 -63 46.5 -92.5t101.5 -29.5q31 0 58 10
t46.5 28t31 44t11.5 58q0 65 -39.5 103t-103.5 38q-42 0 -77.5 -15t-57.5 -52h-126l80 412h382q66 0 92.5 -32t26.5 -94z" />
    <glyph glyph-name="six" unicode="6" horiz-adv-x="682" 
d="M504 246q0 32 -12.5 59.5t-33.5 47.5t-49 31t-59 11q-32 0 -59 -11.5t-47.5 -31.5t-32 -47.5t-11.5 -58.5q0 -32 11.5 -59.5t31.5 -47.5t47.5 -32t59.5 -12t60 11.5t49 31.5t33 48t12 60zM627 248q0 -62 -21 -110t-58.5 -81.5t-88 -51t-109.5 -17.5q-75 0 -133 29.5
t-94 80.5q-34 49 -47.5 110.5t-13.5 127.5q0 73 15.5 144.5t51.5 127t94 90t143 34.5q39 0 78.5 -8t73.5 -28l-73 -82q-19 12 -39.5 16t-42.5 4q-49 0 -81.5 -23t-52.5 -58t-29.5 -77.5t-11.5 -82.5q0 -2 -0.5 -8t-0.5 -8q31 54 82.5 81t114.5 27q52 0 96.5 -17.5t77 -49
t51 -75t18.5 -95.5z" />
    <glyph glyph-name="seven" unicode="7" horiz-adv-x="682" 
d="M397 0h-149l194 606h-218q-41 0 -54 -15t-13 -43l-90 46q0 23 4 45.5t17 40.5t36 29t62 11h405v-114z" />
    <glyph glyph-name="eight" unicode="8" horiz-adv-x="682" 
d="M484 214q0 31 -11 55.5t-30.5 41.5t-45 26t-55.5 9t-56.5 -9t-46 -25.5t-31 -41.5t-11.5 -56q0 -30 12 -53t32 -39t46 -24t53 -8t53 8.5t46.5 24t32.5 38.5t12 53zM460 532q0 54 -35 80t-84 26t-83 -26.5t-34 -79.5q0 -24 9.5 -43t25.5 -32t37 -20t44 -7t44.5 6.5
t38.5 19.5t27 32t10 44zM616 213q0 -57 -24 -99t-63 -70t-88 -42t-100 -14q-52 0 -101.5 13.5t-88 41t-62 70t-23.5 100.5q0 72 39 118t107 61q-54 17 -80.5 57.5t-26.5 95.5q0 49 21 84t54.5 58t75.5 34t84 11t84.5 -11t77 -34.5t56 -58.5t21.5 -83q0 -26 -7.5 -50.5
t-21 -45t-34 -35.5t-45.5 -22q33 -6 59.5 -22t45.5 -40t29.5 -54t10.5 -63z" />
    <glyph glyph-name="nine" unicode="9" horiz-adv-x="682" 
d="M483 474q0 31 -11.5 59t-31.5 48t-47.5 32t-59.5 12t-60 -11.5t-49 -32t-33.5 -48t-12.5 -59.5t12.5 -59.5t33.5 -47.5t49 -31t60 -11q31 0 58.5 11.5t47.5 31.5t32 47t12 59zM621 384q0 -74 -15.5 -145t-51.5 -126.5t-94 -90t-143 -34.5q-40 0 -79 8t-73 28l73 82
q18 -12 39 -16t43 -4q48 0 80.5 22.5t53 58t30 78t11.5 82.5v8t1 8q-32 -54 -83 -81t-115 -27q-51 0 -95.5 17.5t-77 49t-51 75t-18.5 95.5q0 61 21 109.5t58 82t88 51t110 17.5q74 0 132 -29.5t95 -81.5q34 -48 47.5 -109.5t13.5 -127.5z" />
    <glyph glyph-name="colon" unicode=":" horiz-adv-x="239" 
d="M202 60q0 -17 -7 -30t-19 -22.5t-26.5 -14.5t-29.5 -5t-30 5t-27 14.5t-19 22.5t-7 30q0 16 7 29.5t19 23t27 14.5t30 5t29.5 -5t26.5 -14.5t19 -23t7 -29.5zM202 457q0 -17 -7 -30t-19 -22.5t-26.5 -14.5t-29.5 -5t-30 5t-27 14.5t-19 22.5t-7 30q0 16 7 29.5t19 23
t27 14.5t30 5t29.5 -5t26.5 -14.5t19 -23t7 -29.5z" />
    <glyph glyph-name="semicolon" unicode=";" horiz-adv-x="239" 
d="M89 -166l-89 52l161 278l89 -51zM202 457q0 -17 -7 -30t-19 -22.5t-26.5 -14.5t-29.5 -5t-30 5t-27 14.5t-19 22.5t-7 30q0 16 7 29.5t19 23t27 14.5t30 5t29.5 -5t26.5 -14.5t19 -23t7 -29.5z" />
    <glyph glyph-name="less" unicode="&#x3c;" horiz-adv-x="596" 
d="M45 316v88l506 217v-109l-354 -152l354 -152v-109z" />
    <glyph glyph-name="equal" unicode="=" horiz-adv-x="595" 
d="M45 197v103h505v-103h-505zM45 420v103h505v-103h-505z" />
    <glyph glyph-name="greater" unicode="&#x3e;" horiz-adv-x="596" 
d="M45 99v109l354 152l-354 152v109l506 -217v-88z" />
    <glyph glyph-name="question" unicode="?" horiz-adv-x="569" 
d="M359 60q0 -17 -7 -30t-19 -22.5t-26.5 -14.5t-29.5 -5t-30 5t-27 14.5t-19 22.5t-7 30q0 16 7 29.5t19 23t27 14.5t30 5t29.5 -5t26.5 -14.5t19 -23t7 -29.5zM532 540q1 -43 -11 -71.5t-30 -48t-39.5 -33l-40.5 -26.5q-22 -15 -36 -28.5t-22.5 -28.5t-11.5 -33.5
t-3 -42.5v-70h-123v70q0 22 2 47t10 50t24 49t45 44q9 6 25 15t31.5 22.5t27 32t11.5 43.5q0 42 -28 64t-75 22q-59 0 -87.5 -39t-25.5 -96h-138q1 49 16 94t46.5 79.5t79 55t113.5 20.5q61 0 106 -16.5t74.5 -43.5t44.5 -61t15 -70z" />
    <glyph glyph-name="at" unicode="@" horiz-adv-x="805" 
d="M515 401q-5 38 -31.5 60t-64.5 22q-30 0 -55.5 -15.5t-44 -39.5t-28.5 -53.5t-10 -56.5q0 -19 6.5 -36.5t18 -30.5t27.5 -20.5t36 -7.5q74 0 108 67l18.5 53zM768 431q0 -76 -30 -137q-19 -38 -50.5 -71t-73.5 -56q-21 -11 -45 -19.5t-47 -8.5q-21 0 -38 11t-21 32
q0 3 -0.5 6t-0.5 7q-20 -30 -50 -43t-65 -13q-36 0 -65 13.5t-50 36.5t-32 53.5t-11 65.5q0 47 15.5 93t45 83t70.5 59.5t92 22.5q39 0 74 -17t55 -53l16 52h67l-66 -225q-6 -20 -10.5 -40.5t-4.5 -40.5q0 -12 5.5 -21.5t19.5 -9.5t26.5 5.5t23.5 13.5q20 15 34.5 36t24 45
t14 50t4.5 51q0 61 -21.5 107.5t-59 78t-87.5 47t-108 15.5q-64 0 -120.5 -22.5t-98.5 -62t-66 -94.5t-24 -120q0 -67 23 -122.5t63.5 -95t97 -61.5t122.5 -22q69 0 130 23.5t109 72.5h79q-54 -84 -136.5 -126t-181.5 -42q-82 0 -151.5 27t-120 76.5t-79 118t-28.5 151.5
q0 84 29 152t80.5 117t122 75.5t152.5 26.5q68 0 130.5 -19.5t110.5 -57.5t77 -94.5t29 -129.5z" />
    <glyph glyph-name="A" unicode="A" 
d="M385 486q0 25 -3.5 49.5t-13.5 44t-28.5 31.5t-47.5 12q-30 0 -48 -12t-28 -31.5t-13.5 -44t-3.5 -49.5v-69h186v69zM385 0v303h-186v-303h-145v503q0 118 61 176t177 58q119 0 178.5 -59.5t59.5 -174.5v-503h-145z" />
    <glyph glyph-name="B" unicode="B" 
d="M402 223q0 54 -34.5 79.5t-89.5 25.5h-79v-214h72q26 0 50 6t42 18.5t28.5 33.5t10.5 51zM379 515q0 48 -32.5 69.5t-82.5 21.5h-65v-187h65q48 0 81.5 23t33.5 73zM547 210q0 -52 -20.5 -91.5t-54 -65.5t-77.5 -39.5t-92 -13.5h-249v720h244q43 0 82.5 -10t69.5 -32
t48 -55.5t18 -81.5q0 -56 -30 -95.5t-81 -56.5q67 -14 104.5 -62t37.5 -117z" />
    <glyph glyph-name="C" unicode="C" horiz-adv-x="739" 
d="M702 280q-3 -66 -28.5 -120.5t-68 -94t-99 -61t-122.5 -21.5q-81 0 -145.5 29t-109.5 80t-68.5 119.5t-23.5 146.5q0 80 23.5 149.5t68.5 120.5t110.5 80t149.5 29q61 0 115.5 -17t96.5 -50.5t68.5 -83t32.5 -113.5h-142q-4 33 -19.5 60t-39.5 45.5t-53.5 29t-61.5 10.5
q-54 0 -92.5 -23t-63.5 -60t-36.5 -83.5t-11.5 -93.5q0 -46 11.5 -91.5t35.5 -82t61.5 -59.5t90.5 -23q41 0 72 13.5t53 37.5t35 56.5t19 70.5h142v0z" />
    <glyph glyph-name="D" unicode="D" horiz-adv-x="637" 
d="M455 362q0 52 -13 95.5t-40 75t-67.5 48.5t-95.5 17h-40v-476h42q55 0 95 18.5t66.5 50.5t39.5 76.5t13 95.5v-1zM600 361q0 -85 -23.5 -152t-68.5 -113.5t-111 -71t-151 -24.5h-192v720h231q81 0 140.5 -27.5t98.5 -76t57.5 -114t18.5 -141.5z" />
    <glyph glyph-name="E" unicode="E" 
d="M54 0v720h477v-122h-332v-181h300v-114h-300v-181h340v-122h-485z" />
    <glyph glyph-name="F" unicode="F" 
d="M199 598v-181h300v-114h-300v-303h-145v720h477v-122h-332z" />
    <glyph glyph-name="G" unicode="G" horiz-adv-x="756" 
d="M713 -2q-47 0 -71 22t-40 70q-36 -49 -91 -78t-127 -29q-81 0 -145.5 29t-109.5 80t-68.5 119.5t-23.5 146.5q0 80 23.5 149.5t68.5 120.5t110.5 80t149.5 29q61 0 115.5 -17t96.5 -50.5t68.5 -83t32.5 -113.5h-142q-4 33 -19.5 60t-39.5 45.5t-53.5 29t-61.5 10.5
q-54 0 -92.5 -23t-63.5 -60t-36.5 -83.5t-11.5 -93.5q0 -46 11.5 -91.5t35.5 -82t61.5 -59.5t90.5 -23q71 0 112.5 40t55.5 102h-164v114h317v-184q0 -44 16 -58.5t48 -14.5z" />
    <glyph glyph-name="H" unicode="H" horiz-adv-x="660" 
d="M458 0v316h-259v-316h-145v720h145v-291h258v291h146v-720h-145z" />
    <glyph glyph-name="I" unicode="I" horiz-adv-x="253" 
d="M54 0v720h145v-720h-145z" />
    <glyph glyph-name="J" unicode="J" 
d="M530 230q0 -126 -58 -186.5t-183 -60.5q-62 0 -106 17t-73 48t-42.5 74t-13.5 95v63h131v-51q0 -30 5 -54t16.5 -41.5t31 -27t48.5 -9.5t48 10.5t30.5 29.5t16 43.5t4.5 53.5v364h-130q-42 0 -56 -15t-14 -46l-96 49q0 25 4.5 49t18 43t38 30.5t65.5 11.5h315v-490v0z
" />
    <glyph glyph-name="K" unicode="K" horiz-adv-x="536" 
d="M369 0l-170 237v-237h-145v720h145v-237l170 237h167l-254 -360l254 -360h-167z" />
    <glyph glyph-name="L" unicode="L" 
d="M584 134q0 -25 -4 -49t-17.5 -43t-38.5 -30.5t-66 -11.5h-404v720h145v-598h219q43 0 56.5 15t13.5 46l96 -49v0z" />
    <glyph glyph-name="M" unicode="M" horiz-adv-x="915" 
d="M716 0v486q0 25 -3.5 50t-13.5 44t-28.5 31t-47.5 12q-30 0 -48 -12t-28 -31t-13.5 -44t-3.5 -50v-486h-145v486q0 25 -3.5 50t-13.5 44t-28.5 31t-47.5 12t-47.5 -12t-28.5 -31t-13.5 -44t-3.5 -50v-486h-145v503q0 118 61 176t177 58q53 0 95 -16t71 -49q29 33 70.5 49
t94.5 16q117 0 177.5 -58t60.5 -176v-503h-145z" />
    <glyph glyph-name="N" unicode="N" 
d="M385 0v486q0 25 -3.5 49.5t-13.5 44t-28.5 31.5t-47.5 12q-30 0 -48 -12t-28 -31.5t-13.5 -44t-3.5 -49.5v-486h-145v503q0 118 61 176t177 58q119 0 178.5 -59.5t59.5 -174.5v-503h-145z" />
    <glyph glyph-name="O" unicode="O" horiz-adv-x="773" 
d="M591 360q0 48 -12 94t-36.5 82.5t-63 59t-92.5 22.5t-93 -22.5t-63.5 -59t-36.5 -82.5t-12 -94t12 -94t36.5 -82.5t63.5 -59t93 -22.5t92.5 22.5t63 59t36.5 82.5t12 94zM736 360q0 -78 -24 -147t-69 -120t-109.5 -80.5t-146.5 -29.5t-147 29.5t-110 80.5t-69 120
t-24 147t24 147t69 120t110 80.5t147 29.5t146.5 -29.5t109.5 -80.5t69 -120t24 -147z" />
    <glyph glyph-name="P" unicode="P" horiz-adv-x="587" 
d="M412 489q0 31 -10 52t-28.5 33.5t-44 18t-56.5 5.5h-74v-221h66q29 0 55.5 5.5t47 18.5t32.5 34.5t12 53.5zM550 494q0 -58 -19.5 -101.5t-54 -72t-82.5 -43t-105 -14.5h-90v-263h-145v720h250q65 0 111.5 -19.5t76.5 -51t44 -72.5t14 -83z" />
    <glyph glyph-name="Q" unicode="Q" horiz-adv-x="773" 
d="M591 360q0 48 -12 94t-36.5 82.5t-63 59t-92.5 22.5t-93 -22.5t-63.5 -59t-36.5 -82.5t-12 -94t12 -94t36.5 -82.5t63.5 -59t93 -22.5q30 0 56.5 10t46.5 32l-50 53q-12 13 -23.5 23t-25.5 11q-11 1 -21 -4.5t-21 -13.5l-12 106q19 14 41 25t45 12q25 1 47 -15t49 -43
l47 -47q14 25 19.5 52.5t5.5 56.5zM816 -63q-20 -15 -42 -26t-46 -11q-25 0 -47 15t-47 43l-72 82q-36 -29 -80.5 -43t-94.5 -14q-82 0 -147 29.5t-110 80.5t-69 120t-24 147t24 147t69 120t110 80.5t147 29.5t146.5 -29.5t109.5 -80.5t69 -120t24 -147q0 -70 -19.5 -133
t-57.5 -114l54 -54q13 -13 24 -23t25 -11q11 -1 21 4.5t21 13.5l12 -106v0z" />
    <glyph glyph-name="R" unicode="R" horiz-adv-x="590" 
d="M408 501q0 50 -31.5 77.5t-109.5 27.5h-66v-216h70q24 0 49 5t44.5 18t31.5 34.5t12 53.5zM553 522q0 -62 -32 -111.5t-93 -67.5q34 -9 57 -27.5t37 -43t19.5 -54.5t5.5 -63v-155h-141v130q0 36 -5.5 65.5t-20.5 49.5t-41 31t-66 11h-72v-287h-145v720h269
q48 0 89.5 -11.5t72 -36t48.5 -62t18 -88.5z" />
    <glyph glyph-name="S" unicode="S" horiz-adv-x="626" 
d="M613 211q0 -63 -25.5 -106.5t-67 -70.5t-94.5 -39t-107 -12q-42 0 -95 10.5t-100 39t-79.5 78.5t-32.5 129h145q0 -41 13 -69.5t36 -46.5t55 -26.5t70 -8.5q24 0 48.5 6t44 18.5t32 33t12.5 50.5q0 29 -13 47t-37.5 30.5t-59.5 22l-80 21.5q-43 11 -86 24t-77.5 34.5
t-56 55t-21.5 87.5q0 58 23.5 99.5t61.5 68t86.5 38.5t99.5 12q56 0 106 -12t88.5 -39t61.5 -71t25 -107h-137q1 33 -11 56.5t-32 38t-46.5 21.5t-54.5 7q-21 0 -45 -4.5t-44 -15t-32.5 -28.5t-12.5 -45q1 -30 20.5 -49t50.5 -31.5t70.5 -21.5t80.5 -20q42 -11 81.5 -25
t69.5 -37t48 -57t18 -86z" />
    <glyph glyph-name="T" unicode="T" 
d="M365 598v-598h-145v598h-54q-43 0 -56.5 -15t-13.5 -46l-96 49q0 25 4 49t17.5 43t38.5 30.5t66 11.5h458v-122h-219z" />
    <glyph glyph-name="U" unicode="U" 
d="M530 217q0 -118 -61 -176t-177 -58q-119 0 -178.5 59.5t-59.5 174.5v503h145v-486q0 -25 3.5 -49.5t13.5 -44t28.5 -31.5t47.5 -12q30 0 48 12t28 31.5t13.5 44t3.5 49.5v486h145v-503v0z" />
    <glyph glyph-name="V" unicode="V" horiz-adv-x="603" 
d="M376 0h-149l-227 720h149l153 -464l153 464h148z" />
    <glyph glyph-name="W" unicode="W" horiz-adv-x="915" 
d="M861 217q0 -118 -61 -176t-177 -58q-53 0 -95 16t-71 49q-29 -33 -70.5 -49t-94.5 -16q-117 0 -177.5 58t-60.5 176v503h145v-486q0 -26 3.5 -50.5t13.5 -43.5t28.5 -31t47.5 -12q30 0 48 12t28 31t13.5 43.5t3.5 50.5v486h145v-486q0 -26 3.5 -50.5t13.5 -43.5t28.5 -31
t47.5 -12t47.5 12t28.5 31t13.5 43.5t3.5 50.5v486h145v-503v0z" />
    <glyph glyph-name="X" unicode="X" horiz-adv-x="674" 
d="M507 0l-170 237l-170 -237h-167l253 360l-253 360h167l170 -237l170 237h167l-254 -360l254 -360h-167z" />
    <glyph glyph-name="Y" unicode="Y" 
d="M530 537q0 -97 -42 -153t-123 -72v-312h-145v312q-166 32 -166 225v183h145v-166q0 -25 3.5 -49.5t13.5 -44t28.5 -31.5t47.5 -12q30 0 48 12t28 31.5t13.5 44t3.5 49.5v166h145v-183v0z" />
    <glyph glyph-name="Z" unicode="Z" horiz-adv-x="617" 
d="M620 134q0 -25 -4 -49t-17.5 -43t-38 -30.5t-65.5 -11.5h-480v118l400 480h-373v122h561v-110l-401 -488h253q42 0 55.5 15t13.5 46l96 -49v0z" />
    <glyph glyph-name="bracketleft" unicode="[" horiz-adv-x="349" 
d="M54 -206v926h250v-103h-131v-720h131v-103h-250z" />
    <glyph glyph-name="backslash" unicode="\" horiz-adv-x="389" 
d="M286 0l-286 720h102l287 -720h-103z" />
    <glyph glyph-name="bracketright" unicode="]" horiz-adv-x="349" 
d="M51 -206v103h131v720h-131v103h250v-926h-250z" />
    <glyph glyph-name="asciicircum" unicode="^" horiz-adv-x="475" 
d="M371 322l-134 281l-134 -281h-103l195 398h84l196 -398h-104z" />
    <glyph glyph-name="underscore" unicode="_" horiz-adv-x="500" 
d="M0 -125v50h500v-50h-500z" />
    <glyph glyph-name="grave" unicode="`" horiz-adv-x="0" 
d="M176 715h140l110 -147h-91z" />
    <glyph glyph-name="a" unicode="a" horiz-adv-x="647" 
d="M462 335q0 22 -13.5 40t-33.5 30.5t-43.5 19.5t-43.5 7q-44 0 -74.5 -14t-49.5 -38t-27.5 -56.5t-8.5 -69.5q0 -75 37.5 -122t117.5 -47q24 0 48.5 7.5t45 21.5t33 34.5t12.5 46.5v140zM462 0v52q-29 -31 -71 -48t-93 -17q-57 0 -105 20t-82.5 55.5t-54 84.5t-19.5 107
q0 59 19 109.5t54 87.5t84 58t109 21q47 0 88 -15t71 -44v46h131v-517h-131z" />
    <glyph glyph-name="b" unicode="b" horiz-adv-x="647" 
d="M479 254q0 37 -8.5 69.5t-27.5 56.5t-49.5 38t-74.5 14q-20 0 -43.5 -7t-43.5 -19.5t-33.5 -30t-13.5 -39.5v-141q0 -26 12.5 -46.5t33 -34.5t45 -21.5t48.5 -7.5q80 0 117.5 47t37.5 122zM610 254q0 -58 -19.5 -107t-54 -84.5t-82.5 -55.5t-105 -20q-51 0 -93 17t-71 48
v-52h-131v720h131v-249q30 29 71 44t88 15q60 0 109 -21t84 -57.5t54 -87t19 -110.5z" />
    <glyph glyph-name="c" unicode="c" horiz-adv-x="580" 
d="M543 195q-6 -50 -27 -88.5t-53 -65t-74 -40.5t-91 -14q-58 0 -106 20.5t-82.5 56t-53.5 84.5t-19 106q0 59 19 109.5t53.5 87.5t84 58t109.5 21q45 0 86.5 -12t74 -36.5t53.5 -61t26 -85.5h-125q-6 47 -36.5 72t-76.5 25q-39 0 -65.5 -15t-42.5 -40t-22.5 -57t-6.5 -66
q0 -32 7 -62.5t22.5 -54t41 -38t62.5 -14.5q48 0 80 31t37 79h125v0z" />
    <glyph glyph-name="d" unicode="d" horiz-adv-x="647" 
d="M462 335q0 22 -13.5 40t-33.5 30.5t-43.5 19.5t-43.5 7q-44 0 -74.5 -14t-49.5 -38t-27.5 -56.5t-8.5 -69.5q0 -75 37.5 -122t117.5 -47q24 0 48.5 7.5t45 21.5t33 34.5t12.5 46.5v140zM462 0v52q-29 -31 -71 -48t-93 -17q-57 0 -105 20t-82.5 55.5t-54 84.5t-19.5 107
q0 59 19 109.5t54 87.5t84 58t109 21q47 0 88 -15t71 -44v249h131v-720h-131z" />
    <glyph glyph-name="e" unicode="e" horiz-adv-x="580" 
d="M408 365q-11 32 -38 49.5t-65 17.5q-34 0 -58.5 -11.5t-40.5 -31t-24.5 -45.5t-10.5 -55v-11l237 87v0zM543 195q-6 -50 -27 -88.5t-53 -65t-74 -40.5t-91 -14q-58 0 -106 20.5t-82.5 56t-53.5 84.5t-19 106q0 59 19 109.5t53.5 87.5t84 58t109.5 21q45 0 86.5 -12
t74 -36.5t53.5 -61t26 -84.5l-370 -135q8 -48 38.5 -82t89.5 -34q48 0 80 31t37 79h125v0z" />
    <glyph glyph-name="f" unicode="f" horiz-adv-x="239" 
d="M294 629q-18 3 -45 3q-32 0 -48 -13.5t-16 -56.5v-45h54v-92h-54v-425h-131v425h-54v83h54v94q0 43 12.5 69.5t32.5 40.5t45.5 18.5t51.5 4.5q29 0 52 -2t46 -3v-101v0z" />
    <glyph glyph-name="g" unicode="g" horiz-adv-x="644" 
d="M462 335q0 22 -13.5 40t-33.5 30.5t-43.5 19.5t-43.5 7q-44 0 -74.5 -14t-49.5 -38t-27.5 -56.5t-8.5 -69.5q0 -75 37.5 -122t117.5 -47q24 0 48.5 7.5t45 21.5t33 34.5t12.5 46.5v140zM593 9q0 -44 -10.5 -85.5t-38.5 -74t-76 -52.5t-124 -20q-44 0 -85.5 8t-75 27.5
t-55.5 52t-27 81.5h130q6 -41 38 -64.5t71 -23.5q32 0 55 12t38 32t22 46t7 54v50q-29 -31 -71 -48t-93 -17q-57 0 -105 20t-82.5 55.5t-54 84.5t-19.5 107q0 59 19 109.5t54 87.5t84 58t109 21q47 0 88 -15t71 -44v46h131v-508v0z" />
    <glyph glyph-name="h" unicode="h" horiz-adv-x="592" 
d="M407 0v297q0 26 -5 49t-17 40.5t-31.5 27.5t-48.5 10q-31 0 -53.5 -12t-37.5 -31.5t-22 -46t-7 -54.5v-280h-131v720h131v-286q28 51 71 73.5t102 22.5q82 0 131 -48.5t49 -131.5v-350h-131z" />
    <glyph glyph-name="i" unicode="i" horiz-adv-x="239" 
d="M54 0v517h131v-517h-131zM202 665q0 -17 -7 -30t-19 -22.5t-26.5 -14.5t-29.5 -5t-30 5t-27 14.5t-19 22.5t-7 30q0 16 7 29.5t19 23t27 14.5t30 5t29.5 -5t26.5 -14.5t19 -23t7 -29.5z" />
    <glyph glyph-name="j" unicode="j" horiz-adv-x="239" 
d="M185 9q0 -44 -10.5 -85.5t-38.5 -74t-76 -52.5t-124 -20q-44 0 -85.5 8t-75 27.5t-55.5 52t-27 81.5h130q6 -41 38 -64.5t71 -23.5q33 0 56 12t37.5 32t21.5 46t7 54v515h131v-508v0zM202 665q0 -17 -7 -30t-19 -22.5t-26.5 -14.5t-29.5 -5t-30 5t-27 14.5t-19 22.5
t-7 30q0 16 7 29.5t19 23t27 14.5t30 5t29.5 -5t26.5 -14.5t19 -23t7 -29.5z" />
    <glyph glyph-name="k" unicode="k" horiz-adv-x="439" 
d="M296 0l-111 153v-153h-131v720h131v-356l111 153h143l-182 -258l182 -259h-143z" />
    <glyph glyph-name="l" unicode="l" horiz-adv-x="239" 
d="M54 0v720h131v-720h-131z" />
    <glyph glyph-name="m" unicode="m" horiz-adv-x="944" 
d="M759 0v297q0 26 -5 49t-16.5 40.5t-31 27.5t-49.5 10q-31 0 -53.5 -12t-37 -31.5t-21.5 -46t-7 -54.5v-280h-131v297q0 26 -5 49t-17 40.5t-31.5 27.5t-48.5 10q-32 0 -54.5 -12t-37 -31.5t-21.5 -46t-7 -54.5v-280h-131v517h131v-83q28 51 71.5 73.5t101.5 22.5
q65 0 109 -31.5t61 -86.5q23 62 69.5 90t112.5 28q82 0 131 -49t49 -131v-350h-131z" />
    <glyph glyph-name="n" unicode="n" horiz-adv-x="592" 
d="M407 0v297q0 26 -5 49t-17 40.5t-31.5 27.5t-48.5 10q-31 0 -53.5 -12t-37.5 -31.5t-22 -46t-7 -54.5v-280h-131v517h131v-83q28 51 71 73.5t102 22.5q82 0 131 -48.5t49 -131.5v-350h-131z" />
    <glyph glyph-name="o" unicode="o" horiz-adv-x="601" 
d="M433 259q0 31 -7 61.5t-22.5 55.5t-40.5 40.5t-62 15.5t-62.5 -15.5t-41 -40.5t-22.5 -55.5t-7 -61.5t7 -62t22.5 -56t41 -40.5t62.5 -15.5t62 15.5t40.5 40.5t22.5 56t7 62zM564 259q0 -54 -16 -103t-48.5 -86.5t-82 -60t-116.5 -22.5t-116.5 22.5t-82.5 60t-49 86.5
t-16 103q0 53 16 102t49 86.5t82.5 60t116.5 22.5t116.5 -22.5t82 -60t48.5 -86.5t16 -102z" />
    <glyph glyph-name="p" unicode="p" horiz-adv-x="647" 
d="M479 254q0 37 -8.5 69.5t-27.5 56.5t-49.5 38t-74.5 14q-20 0 -43.5 -7t-43.5 -19.5t-33.5 -30t-13.5 -39.5v-141q0 -26 12.5 -46.5t33 -34.5t45 -21.5t48.5 -7.5q80 0 117.5 47t37.5 122zM610 254q0 -58 -19.5 -107t-54 -84.5t-82.5 -55.5t-105 -20q-51 0 -93 17t-71 48
v-258h-131v723h131v-46q30 29 71 44t88 15q60 0 109 -21t84 -57.5t54 -87t19 -110.5z" />
    <glyph glyph-name="q" unicode="q" horiz-adv-x="647" 
d="M462 335q0 22 -13.5 40t-33.5 30.5t-43.5 19.5t-43.5 7q-44 0 -74.5 -14t-49.5 -38t-27.5 -56.5t-8.5 -69.5q0 -75 37.5 -122t117.5 -47q24 0 48.5 7.5t45 21.5t33 34.5t12.5 46.5v140zM462 -206v258q-29 -31 -71 -48t-93 -17q-57 0 -105 20t-82.5 55.5t-54 84.5
t-19.5 107q0 59 19 109.5t54 87.5t84 58t109 21q47 0 88 -15t71 -44v46h131v-723h-131z" />
    <glyph glyph-name="r" unicode="r" horiz-adv-x="386" 
d="M305 424q-32 0 -54.5 -12t-37 -32t-21.5 -46t-7 -54v-280h-131v517h131v-83q28 51 71.5 73.5t101.5 22.5q7 0 14 -0.5t14 -1.5z" />
    <glyph glyph-name="s" unicode="s" horiz-adv-x="520" 
d="M497 155q0 -48 -21 -80.5t-54.5 -52t-75.5 -27.5t-84 -8q-48 0 -91 10.5t-76 32.5t-52.5 57t-20.5 85h126q1 -52 34 -76.5t84 -24.5q16 0 34.5 4t34 12t25.5 21.5t10 32.5q0 20 -8.5 33t-25 21.5t-41.5 15t-59 12.5q-47 9 -84 21t-62.5 30t-39 43t-13.5 61q0 39 18 67.5
t48.5 47.5t70 28t81.5 9t82.5 -8t72.5 -27t51.5 -50.5t21.5 -78.5h-120q-2 45 -32 66.5t-72 21.5q-27 0 -45.5 -6.5t-29.5 -16t-16 -21.5t-5 -22q0 -24 23 -39t54.5 -24.5t64.5 -15t52 -11.5q27 -8 52 -18.5t44.5 -27t31.5 -40t12 -57.5z" />
    <glyph glyph-name="t" unicode="t" horiz-adv-x="239" 
d="M185 433v-433h-131v433h-54v84h54v112l131 65v-177h54v-84h-54z" />
    <glyph glyph-name="u" unicode="u" horiz-adv-x="592" 
d="M407 0v83q-29 -51 -72 -73.5t-101 -22.5q-82 0 -131 49t-49 131v350h131v-297q0 -26 5 -49t17 -40t31.5 -27t48.5 -10q31 0 53.5 11.5t37 31.5t21.5 45.5t7 54.5v280h132v-517h-131z" />
    <glyph glyph-name="v" unicode="v" horiz-adv-x="488" 
d="M312 0h-136l-176 517h137l107 -308l107 308h137z" />
    <glyph glyph-name="w" unicode="w" horiz-adv-x="944" 
d="M759 0v83q-28 -51 -71.5 -73.5t-101.5 -22.5q-65 0 -109 31.5t-60 86.5q-23 -62 -70 -90t-113 -28q-82 0 -131 49t-49 131v350h131v-297q0 -26 5 -48.5t17 -40t31.5 -27.5t48.5 -10q31 0 53.5 12t37 31.5t21.5 45.5t7 54v280h132v-297q0 -26 5 -48.5t16.5 -40t31 -27.5
t48.5 -10q31 0 54 12t37.5 31.5t21.5 45.5t7 54v280h131v-517h-131z" />
    <glyph glyph-name="x" unicode="x" horiz-adv-x="508" 
d="M364 0l-110 153l-110 -153h-144l182 259l-182 258h144l110 -153l110 153h144l-182 -258l182 -259h-144z" />
    <glyph glyph-name="y" unicode="y" horiz-adv-x="592" 
d="M538 9q0 -44 -10.5 -85.5t-38.5 -74t-76 -52.5t-124 -20q-44 0 -85.5 8t-75 27.5t-56 52t-26.5 81.5h130q6 -41 37.5 -64.5t71.5 -23.5q32 0 55 12t38 32t22 46t7 54v81q-29 -51 -72 -73.5t-101 -22.5q-82 0 -131 49t-49 131v350h131v-297q0 -26 5 -49t17 -40t31.5 -27
t48.5 -10q31 0 53.5 11.5t37 31.5t21.5 45.5t7 54.5v280h132v-508v0z" />
    <glyph glyph-name="z" unicode="z" horiz-adv-x="500" 
d="M500 112q0 -21 -3.5 -41t-15 -36t-32.5 -25.5t-55 -9.5h-382v105l287 315h-263v97h430v-104l-283 -316h179q38 0 49.5 14t11.5 40l77 -39v0z" />
    <glyph glyph-name="braceleft" unicode="{" horiz-adv-x="376" 
d="M241 -206q-51 0 -83.5 31.5t-32.5 90.5v185q0 45 -22 70t-58 36v103q15 1 29 8t25 19.5t18 30.5t7 40v191q0 59 33 90t84 31h90v-103h-40q-30 0 -41.5 -19.5t-11.5 -58.5v-164q0 -24 -8 -44t-22 -35t-32.5 -25t-38.5 -14q44 -8 72.5 -36.5t28.5 -86.5v-158
q0 -44 13 -61.5t44 -17.5h36v-103h-90z" />
    <glyph glyph-name="bar" unicode="|" horiz-adv-x="211" 
d="M54 0v720h103v-720h-103z" />
    <glyph glyph-name="braceright" unicode="}" horiz-adv-x="376" 
d="M331 207q-36 -11 -58 -36t-22 -70v-185q0 -59 -32.5 -90.5t-83.5 -31.5h-90v103h35q31 0 44 17.5t13 61.5v158q0 58 29 86.5t73 36.5q-20 4 -38.5 14t-32.5 25t-22.5 35t-8.5 44v164q0 39 -11 58.5t-41 19.5h-40v103h90q51 0 83.5 -31t32.5 -90v-191q0 -45 25 -70.5
t55 -27.5v-103v0z" />
    <glyph glyph-name="asciitilde" unicode="~" horiz-adv-x="530" 
d="M493 361l-22.5 -31.5t-26 -27.5t-31.5 -19.5t-39 -7.5q-26 0 -50.5 9.5t-49.5 22.5t-53 24t-65 11q-33 0 -54 -21.5t-35 -49.5l-30 88q17 33 46 59t76 27q26 0 55.5 -9.5t58.5 -22.5l55.5 -24t46.5 -11q30 0 50.5 22.5t37.5 48.5l30 -88v0z" />
    <glyph glyph-name="Adieresis" unicode="&#xc4;" 
d="M385 486q0 25 -3.5 49.5t-13.5 44t-28.5 31.5t-47.5 12q-30 0 -48 -12t-28 -31.5t-13.5 -44t-3.5 -49.5v-69h186v69zM385 0v303h-186v-303h-145v503q0 118 61 176t177 58q119 0 178.5 -59.5t59.5 -174.5v-503h-145zM268 825q0 -17 -7 -30t-19 -22.5t-26.5 -14.5t-29.5 -5
t-30 5t-27 14.5t-19 22.5t-7 30q0 16 7 29.5t19 23t27 14.5t30 5t29.5 -5t26.5 -14.5t19 -23t7 -29.5zM490 825q0 -17 -7 -30t-19 -22.5t-26.5 -14.5t-29.5 -5t-30 5t-27 14.5t-19 22.5t-7 30q0 16 7 29.5t19 23t27 14.5t30 5t29.5 -5t26.5 -14.5t19 -23t7 -29.5z" />
    <glyph glyph-name="Aring" unicode="&#xc5;" 
d="M385 486q0 25 -3.5 49.5t-13.5 44t-28.5 31.5t-47.5 12q-30 0 -48 -12t-28 -31.5t-13.5 -44t-3.5 -49.5v-69h186v69zM350 848q0 23 -17.5 40.5t-40.5 17.5t-41 -17t-18 -41q0 -23 18 -40.5t41 -17.5t40.5 17.5t17.5 40.5zM385 0v303h-186v-303h-145v503q0 118 61 176
t177 58q119 0 178.5 -59.5t59.5 -174.5v-503h-145zM395 848q0 -21 -8 -39.5t-22 -33t-33 -22.5t-40 -8t-40 8t-33 22.5t-22.5 33t-8.5 39.5t8.5 40t22.5 33t33 22t40 8t39.5 -8t33 -22.5t22.5 -33t8 -39.5z" />
    <glyph glyph-name="Ccedilla" unicode="&#xc7;" horiz-adv-x="739" 
d="M702 280q-3 -63 -26.5 -115.5t-62.5 -91.5t-91.5 -62t-114.5 -27l-30 -46q16 6 40 6q17 0 33.5 -4t29 -13t20.5 -23t8 -33q0 -25 -10.5 -41.5t-27.5 -26t-38 -13.5t-42 -4q-35 0 -62 7t-56 17l17 36l40 -12t41 -6q22 0 42 9t20 34q0 18 -16 27.5t-32 9.5q-25 0 -44 -12
l-22 19l45 69q-77 4 -137.5 34.5t-102.5 80.5t-64 116.5t-22 142.5q0 80 23.5 149.5t68.5 120.5t110.5 80t149.5 29q61 0 115.5 -17t96.5 -50.5t68.5 -83t32.5 -113.5h-142q-4 33 -19.5 60t-39.5 45.5t-53.5 29t-61.5 10.5q-54 0 -92.5 -23t-63.5 -60t-36.5 -83.5
t-11.5 -93.5q0 -46 11.5 -91.5t35.5 -82t61.5 -59.5t90.5 -23q41 0 72 13.5t53 37.5t35 56.5t19 70.5h142v0z" />
    <glyph glyph-name="Eacute" unicode="&#xc9;" horiz-adv-x="625" 
d="M54 0v720h477v-122h-332v-181h300v-114h-300v-181h340v-122h-485zM289 764h-91l112 148h141z" />
    <glyph glyph-name="Ntilde" unicode="&#xd1;" 
d="M385 0v486q0 25 -3.5 49.5t-13.5 44t-28.5 31.5t-47.5 12q-30 0 -48 -12t-28 -31.5t-13.5 -44t-3.5 -49.5v-486h-145v503q0 118 61 176t177 58q119 0 178.5 -59.5t59.5 -174.5v-503h-145zM480 889q0 -23 -6.5 -44t-19 -37t-30.5 -25t-42 -9q-22 0 -41 7t-36.5 15.5
t-34 15.5t-32.5 7q-19 0 -30.5 -16.5t-13.5 -32.5h-57q0 19 5.5 40t17 38t29.5 28.5t43 11.5q21 0 41.5 -7t39.5 -16l35 -16t27 -7q40 0 47 47h58v0z" />
    <glyph glyph-name="Odieresis" unicode="&#xd6;" horiz-adv-x="773" 
d="M591 360q0 48 -12 94t-36.5 82.5t-63 59t-92.5 22.5t-93 -22.5t-63.5 -59t-36.5 -82.5t-12 -94t12 -94t36.5 -82.5t63.5 -59t93 -22.5t92.5 22.5t63 59t36.5 82.5t12 94zM736 360q0 -78 -24 -147t-69 -120t-109.5 -80.5t-146.5 -29.5t-147 29.5t-110 80.5t-69 120
t-24 147t24 147t69 120t110 80.5t147 29.5t146.5 -29.5t109.5 -80.5t69 -120t24 -147zM352 825q0 -17 -7 -30t-19 -22.5t-26.5 -14.5t-29.5 -5t-30 5t-27 14.5t-19 22.5t-7 30q0 16 7 29.5t19 23t27 14.5t30 5t29.5 -5t26.5 -14.5t19 -23t7 -29.5zM575 825q0 -17 -7 -30
t-19 -22.5t-27 -14.5t-30 -5t-30 5t-27 14.5t-19 22.5t-7 30q0 16 7 29.5t19 23t27 14.5t30 5t30 -5t27 -14.5t19 -23t7 -29.5z" />
    <glyph glyph-name="Udieresis" unicode="&#xdc;" 
d="M530 217q0 -118 -61 -176t-177 -58q-119 0 -178.5 59.5t-59.5 174.5v503h145v-486q0 -25 3.5 -49.5t13.5 -44t28.5 -31.5t47.5 -12q30 0 48 12t28 31.5t13.5 44t3.5 49.5v486h145v-503v0zM264 825q0 -17 -7 -30t-19 -22.5t-26.5 -14.5t-29.5 -5t-30 5t-27 14.5t-19 22.5
t-7 30q0 16 7 29.5t19 23t27 14.5t30 5t29.5 -5t26.5 -14.5t19 -23t7 -29.5zM487 825q0 -17 -7 -30t-19 -22.5t-27 -14.5t-30 -5t-30 5t-27 14.5t-19 22.5t-7 30q0 16 7 29.5t19 23t27 14.5t30 5t30 -5t27 -14.5t19 -23t7 -29.5z" />
    <glyph glyph-name="aacute" unicode="&#xe1;" horiz-adv-x="647" 
d="M462 335q0 22 -13.5 40t-33.5 30.5t-43.5 19.5t-43.5 7q-44 0 -74.5 -14t-49.5 -38t-27.5 -56.5t-8.5 -69.5q0 -75 37.5 -122t117.5 -47q24 0 48.5 7.5t45 21.5t33 34.5t12.5 46.5v140zM462 0v52q-29 -31 -71 -48t-93 -17q-57 0 -105 20t-82.5 55.5t-54 84.5t-19.5 107
q0 59 19 109.5t54 87.5t84 58t109 21q47 0 88 -15t71 -44v46h131v-517h-131zM287 567h-90l111 148h142z" />
    <glyph glyph-name="agrave" unicode="&#xe0;" horiz-adv-x="647" 
d="M462 335q0 22 -13.5 40t-33.5 30.5t-43.5 19.5t-43.5 7q-44 0 -74.5 -14t-49.5 -38t-27.5 -56.5t-8.5 -69.5q0 -75 37.5 -122t117.5 -47q24 0 48.5 7.5t45 21.5t33 34.5t12.5 46.5v140zM462 0v52q-29 -31 -71 -48t-93 -17q-57 0 -105 20t-82.5 55.5t-54 84.5t-19.5 107
q0 59 19 109.5t54 87.5t84 58t109 21q47 0 88 -15t71 -44v46h131v-517h-131zM324 567l-159 148h141l109 -147z" />
    <glyph glyph-name="acircumflex" unicode="&#xe2;" horiz-adv-x="647" 
d="M462 335q0 22 -13.5 40t-33.5 30.5t-43.5 19.5t-43.5 7q-44 0 -74.5 -14t-49.5 -38t-27.5 -56.5t-8.5 -69.5q0 -75 37.5 -122t117.5 -47q24 0 48.5 7.5t45 21.5t33 34.5t12.5 46.5v140zM462 0v52q-29 -31 -71 -48t-93 -17q-57 0 -105 20t-82.5 55.5t-54 84.5t-19.5 107
q0 59 19 109.5t54 87.5t84 58t109 21q47 0 88 -15t71 -44v46h131v-517h-131zM379 569l-74 94l-72 -94h-100l118 146h108l119 -146h-99z" />
    <glyph glyph-name="adieresis" unicode="&#xe4;" horiz-adv-x="647" 
d="M462 335q0 22 -13.5 40t-33.5 30.5t-43.5 19.5t-43.5 7q-44 0 -74.5 -14t-49.5 -38t-27.5 -56.5t-8.5 -69.5q0 -75 37.5 -122t117.5 -47q24 0 48.5 7.5t45 21.5t33 34.5t12.5 46.5v140zM462 0v52q-29 -31 -71 -48t-93 -17q-57 0 -105 20t-82.5 55.5t-54 84.5t-19.5 107
q0 59 19 109.5t54 87.5t84 58t109 21q47 0 88 -15t71 -44v46h131v-517h-131zM302 628q0 -17 -7 -30t-19 -22.5t-26.5 -14.5t-29.5 -5t-30 5t-27 14.5t-19 22.5t-7 30q0 16 7 29.5t19 23t27 14.5t30 5t29.5 -5t26.5 -14.5t19 -23t7 -29.5zM525 628q0 -17 -7 -30t-19 -22.5
t-27 -14.5t-30 -5t-30 5t-27 14.5t-19 22.5t-7 30q0 16 7 29.5t19 23t27 14.5t30 5t30 -5t27 -14.5t19 -23t7 -29.5z" />
    <glyph glyph-name="atilde" unicode="&#xe3;" horiz-adv-x="647" 
d="M462 335q0 22 -13.5 40t-33.5 30.5t-43.5 19.5t-43.5 7q-44 0 -74.5 -14t-49.5 -38t-27.5 -56.5t-8.5 -69.5q0 -75 37.5 -122t117.5 -47q24 0 48.5 7.5t45 21.5t33 34.5t12.5 46.5v140zM462 0v52q-29 -31 -71 -48t-93 -17q-57 0 -105 20t-82.5 55.5t-54 84.5t-19.5 107
q0 59 19 109.5t54 87.5t84 58t109 21q47 0 88 -15t71 -44v46h131v-517h-131zM506 692q-1 -23 -7.5 -44t-19 -37t-30.5 -25t-42 -9q-21 0 -40.5 7t-37 15.5t-34 15.5t-32.5 7q-19 0 -30.5 -16.5t-13.5 -32.5h-57q0 19 5.5 40t17 38.5t30 29t43.5 11.5q21 0 41.5 -7.5t39 -16
l34.5 -16t27 -7.5q40 0 47 47h59v0z" />
    <glyph glyph-name="aring" unicode="&#xe5;" horiz-adv-x="647" 
d="M462 335q0 22 -13.5 40t-33.5 30.5t-43.5 19.5t-43.5 7q-44 0 -74.5 -14t-49.5 -38t-27.5 -56.5t-8.5 -69.5q0 -75 37.5 -122t117.5 -47q24 0 48.5 7.5t45 21.5t33 34.5t12.5 46.5v140zM362 668q0 23 -17.5 40.5t-40.5 17.5t-41 -17t-18 -41q0 -23 18 -40.5t41 -17.5
t40.5 17.5t17.5 40.5zM462 0v52q-29 -31 -71 -48t-93 -17q-57 0 -105 20t-82.5 55.5t-54 84.5t-19.5 107q0 59 19 109.5t54 87.5t84 58t109 21q47 0 88 -15t71 -44v46h131v-517h-131zM407 668q0 -21 -8 -39.5t-22 -33t-33 -22.5t-40 -8t-40 8t-33 22.5t-22.5 33t-8.5 39.5
t8.5 40t22.5 33t33 22t40 8t39.5 -8t33 -22.5t22.5 -33t8 -39.5z" />
    <glyph glyph-name="ccedilla" unicode="&#xe7;" horiz-adv-x="580" 
d="M543 195q-6 -47 -24.5 -84t-48 -63t-67.5 -41.5t-83 -18.5l-33 -50q16 6 40 6q17 0 33.5 -4t29 -13t20.5 -23t8 -33q0 -25 -10.5 -41.5t-27.5 -26t-38 -13.5t-42 -4q-35 0 -62 7t-56 17l17 36l40 -12t41 -6q22 0 42 9t20 34q0 18 -16 27.5t-32 9.5q-25 0 -44 -12l-22 19
l48 73q-54 4 -98 25.5t-75.5 57t-48.5 82.5t-17 101q0 59 19 109.5t53.5 87.5t84 58t109.5 21q45 0 86.5 -12t74 -36.5t53.5 -61t26 -85.5h-125q-6 47 -36.5 72t-76.5 25q-39 0 -65.5 -15t-42.5 -40t-22.5 -57t-6.5 -66q0 -32 7 -62.5t22.5 -54t41 -38t62.5 -14.5
q48 0 80 31t37 79h125v0z" />
    <glyph glyph-name="eacute" unicode="&#xe9;" horiz-adv-x="545" 
d="M408 365q-11 32 -38 49.5t-65 17.5q-34 0 -58.5 -11.5t-40.5 -31t-24.5 -45.5t-10.5 -55v-11l237 87v0zM543 195q-6 -50 -27 -88.5t-53 -65t-74 -40.5t-91 -14q-58 0 -106 20.5t-82.5 56t-53.5 84.5t-19 106q0 59 19 109.5t53.5 87.5t84 58t109.5 21q45 0 86.5 -12
t74 -36.5t53.5 -61t26 -84.5l-370 -135q8 -48 38.5 -82t89.5 -34q48 0 80 31t37 79h125v0zM265 567h-91l112 148h141z" />
    <glyph glyph-name="egrave" unicode="&#xe8;" horiz-adv-x="545" 
d="M408 365q-11 32 -38 49.5t-65 17.5q-34 0 -58.5 -11.5t-40.5 -31t-24.5 -45.5t-10.5 -55v-11l237 87v0zM543 195q-6 -50 -27 -88.5t-53 -65t-74 -40.5t-91 -14q-58 0 -106 20.5t-82.5 56t-53.5 84.5t-19 106q0 59 19 109.5t53.5 87.5t84 58t109.5 21q45 0 86.5 -12
t74 -36.5t53.5 -61t26 -84.5l-370 -135q8 -48 38.5 -82t89.5 -34q48 0 80 31t37 79h125v0zM320 567l-159 148h141l110 -147z" />
    <glyph glyph-name="ecircumflex" unicode="&#xea;" horiz-adv-x="545" 
d="M408 365q-11 32 -38 49.5t-65 17.5q-34 0 -58.5 -11.5t-40.5 -31t-24.5 -45.5t-10.5 -55v-11l237 87v0zM543 195q-6 -50 -27 -88.5t-53 -65t-74 -40.5t-91 -14q-58 0 -106 20.5t-82.5 56t-53.5 84.5t-19 106q0 59 19 109.5t53.5 87.5t84 58t109.5 21q45 0 86.5 -12
t74 -36.5t53.5 -61t26 -84.5l-370 -135q8 -48 38.5 -82t89.5 -34q48 0 80 31t37 79h125v0zM375 569l-74 94l-72 -94h-99l118 146h108l119 -146h-100z" />
    <glyph glyph-name="edieresis" unicode="&#xeb;" horiz-adv-x="545" 
d="M408 365q-11 32 -38 49.5t-65 17.5q-34 0 -58.5 -11.5t-40.5 -31t-24.5 -45.5t-10.5 -55v-11l237 87v0zM543 195q-6 -50 -27 -88.5t-53 -65t-74 -40.5t-91 -14q-58 0 -106 20.5t-82.5 56t-53.5 84.5t-19 106q0 59 19 109.5t53.5 87.5t84 58t109.5 21q45 0 86.5 -12
t74 -36.5t53.5 -61t26 -84.5l-370 -135q8 -48 38.5 -82t89.5 -34q48 0 80 31t37 79h125v0zM276 628q0 -17 -7 -30t-19 -22.5t-26.5 -14.5t-29.5 -5t-30 5t-27 14.5t-19 22.5t-7 30q0 16 7 29.5t19 23t27 14.5t30 5t29.5 -5t26.5 -14.5t19 -23t7 -29.5zM499 628q0 -17 -7 -30
t-19 -22.5t-27 -14.5t-30 -5t-30 5t-27 14.5t-19 22.5t-7 30q0 16 7 29.5t19 23t27 14.5t30 5t30 -5t27 -14.5t19 -23t7 -29.5z" />
    <glyph glyph-name="iacute" unicode="&#xed;" horiz-adv-x="239" 
d="M54 0v517h131v-517h-131zM90 567h-91l112 148h141z" />
    <glyph glyph-name="igrave" unicode="&#xec;" horiz-adv-x="239" 
d="M54 0v517h131v-517h-131zM152 567l-159 148h140l110 -147z" />
    <glyph glyph-name="icircumflex" unicode="&#xee;" horiz-adv-x="239" 
d="M54 0v517h131v-517h-131zM197 569l-75 94l-72 -94h-99l118 146h108l119 -146h-99z" />
    <glyph glyph-name="idieresis" unicode="&#xef;" horiz-adv-x="239" 
d="M54 0v517h131v-517h-131zM98 628q0 -17 -7 -30t-19 -22.5t-27 -14.5t-30 -5t-30 5t-27 14.5t-19 22.5t-7 30q0 16 7 29.5t19 23t27 14.5t30 5t30 -5t27 -14.5t19 -23t7 -29.5zM320 628q0 -17 -7 -30t-19 -22.5t-27 -14.5t-30 -5t-29.5 5t-26.5 14.5t-19 22.5t-7 30
q0 16 7 29.5t19 23t26.5 14.5t29.5 5t30 -5t27 -14.5t19 -23t7 -29.5z" />
    <glyph glyph-name="ntilde" unicode="&#xf1;" horiz-adv-x="592" 
d="M407 0v297q0 26 -5 49t-17 40.5t-31.5 27.5t-48.5 10q-31 0 -53.5 -12t-37.5 -31.5t-22 -46t-7 -54.5v-280h-131v517h131v-83q28 51 71 73.5t102 22.5q82 0 131 -48.5t49 -131.5v-350h-131zM475 692q-1 -23 -7.5 -44t-18.5 -37t-30 -25t-42 -9q-22 0 -41 7t-36.5 15.5
t-34.5 15.5t-33 7q-18 0 -29.5 -16.5t-13.5 -32.5h-57q0 19 5 40t17 38.5t30 29t43 11.5q21 0 41.5 -7.5t39.5 -16l34.5 -16t27.5 -7.5q40 0 46 47h59v0z" />
    <glyph glyph-name="oacute" unicode="&#xf3;" horiz-adv-x="601" 
d="M433 259q0 31 -7 61.5t-22.5 55.5t-40.5 40.5t-62 15.5t-62.5 -15.5t-41 -40.5t-22.5 -55.5t-7 -61.5t7 -62t22.5 -56t41 -40.5t62.5 -15.5t62 15.5t40.5 40.5t22.5 56t7 62zM564 259q0 -54 -16 -103t-48.5 -86.5t-82 -60t-116.5 -22.5t-116.5 22.5t-82.5 60t-49 86.5
t-16 103q0 53 16 102t49 86.5t82.5 60t116.5 22.5t116.5 -22.5t82 -60t48.5 -86.5t16 -102zM281 567h-90l111 148h142z" />
    <glyph glyph-name="ograve" unicode="&#xf2;" horiz-adv-x="601" 
d="M433 259q0 31 -7 61.5t-22.5 55.5t-40.5 40.5t-62 15.5t-62.5 -15.5t-41 -40.5t-22.5 -55.5t-7 -61.5t7 -62t22.5 -56t41 -40.5t62.5 -15.5t62 15.5t40.5 40.5t22.5 56t7 62zM564 259q0 -54 -16 -103t-48.5 -86.5t-82 -60t-116.5 -22.5t-116.5 22.5t-82.5 60t-49 86.5
t-16 103q0 53 16 102t49 86.5t82.5 60t116.5 22.5t116.5 -22.5t82 -60t48.5 -86.5t16 -102zM323 567l-159 148h141l109 -147z" />
    <glyph glyph-name="ocircumflex" unicode="&#xf4;" horiz-adv-x="601" 
d="M433 259q0 31 -7 61.5t-22.5 55.5t-40.5 40.5t-62 15.5t-62.5 -15.5t-41 -40.5t-22.5 -55.5t-7 -61.5t7 -62t22.5 -56t41 -40.5t62.5 -15.5t62 15.5t40.5 40.5t22.5 56t7 62zM564 259q0 -54 -16 -103t-48.5 -86.5t-82 -60t-116.5 -22.5t-116.5 22.5t-82.5 60t-49 86.5
t-16 103q0 53 16 102t49 86.5t82.5 60t116.5 22.5t116.5 -22.5t82 -60t48.5 -86.5t16 -102zM372 569l-75 94l-72 -94h-99l118 146h108l119 -146h-99z" />
    <glyph glyph-name="odieresis" unicode="&#xf6;" horiz-adv-x="601" 
d="M433 259q0 31 -7 61.5t-22.5 55.5t-40.5 40.5t-62 15.5t-62.5 -15.5t-41 -40.5t-22.5 -55.5t-7 -61.5t7 -62t22.5 -56t41 -40.5t62.5 -15.5t62 15.5t40.5 40.5t22.5 56t7 62zM564 259q0 -54 -16 -103t-48.5 -86.5t-82 -60t-116.5 -22.5t-116.5 22.5t-82.5 60t-49 86.5
t-16 103q0 53 16 102t49 86.5t82.5 60t116.5 22.5t116.5 -22.5t82 -60t48.5 -86.5t16 -102zM273 628q0 -17 -7 -30t-19 -22.5t-27 -14.5t-30 -5t-30 5t-27 14.5t-19 22.5t-7 30q0 16 7 29.5t19 23t27 14.5t30 5t30 -5t27 -14.5t19 -23t7 -29.5zM495 628q0 -17 -7 -30
t-19 -22.5t-27 -14.5t-30 -5t-29.5 5t-26.5 14.5t-19 22.5t-7 30q0 16 7 29.5t19 23t26.5 14.5t29.5 5t30 -5t27 -14.5t19 -23t7 -29.5z" />
    <glyph glyph-name="otilde" unicode="&#xf5;" horiz-adv-x="601" 
d="M433 259q0 31 -7 61.5t-22.5 55.5t-40.5 40.5t-62 15.5t-62.5 -15.5t-41 -40.5t-22.5 -55.5t-7 -61.5t7 -62t22.5 -56t41 -40.5t62.5 -15.5t62 15.5t40.5 40.5t22.5 56t7 62zM564 259q0 -54 -16 -103t-48.5 -86.5t-82 -60t-116.5 -22.5t-116.5 22.5t-82.5 60t-49 86.5
t-16 103q0 53 16 102t49 86.5t82.5 60t116.5 22.5t116.5 -22.5t82 -60t48.5 -86.5t16 -102zM470 692q-1 -23 -7.5 -44t-19 -37t-30.5 -25t-42 -9q-21 0 -40.5 7t-37 15.5t-34 15.5t-32.5 7q-19 0 -30.5 -16.5t-13.5 -32.5h-57q0 19 5.5 40t17 38.5t30 29t43.5 11.5
q21 0 41.5 -7.5t39 -16l34.5 -16t27 -7.5q40 0 47 47h59v0z" />
    <glyph glyph-name="uacute" unicode="&#xfa;" horiz-adv-x="592" 
d="M407 0v83q-29 -51 -72 -73.5t-101 -22.5q-82 0 -131 49t-49 131v350h131v-297q0 -26 5 -49t17 -40t31.5 -27t48.5 -10q31 0 53.5 11.5t37 31.5t21.5 45.5t7 54.5v280h132v-517h-131zM269 567h-90l111 148h142z" />
    <glyph glyph-name="ugrave" unicode="&#xf9;" horiz-adv-x="592" 
d="M407 0v83q-29 -51 -72 -73.5t-101 -22.5q-82 0 -131 49t-49 131v350h131v-297q0 -26 5 -49t17 -40t31.5 -27t48.5 -10q31 0 53.5 11.5t37 31.5t21.5 45.5t7 54.5v280h132v-517h-131zM311 567l-159 148h141l109 -147z" />
    <glyph glyph-name="ucircumflex" unicode="&#xfb;" horiz-adv-x="592" 
d="M407 0v83q-29 -51 -72 -73.5t-101 -22.5q-82 0 -131 49t-49 131v350h131v-297q0 -26 5 -49t17 -40t31.5 -27t48.5 -10q31 0 53.5 11.5t37 31.5t21.5 45.5t7 54.5v280h132v-517h-131zM367 569l-74 94l-72 -94h-100l118 146h109l119 -146h-100z" />
    <glyph glyph-name="udieresis" unicode="&#xfc;" horiz-adv-x="592" 
d="M407 0v83q-29 -51 -72 -73.5t-101 -22.5q-82 0 -131 49t-49 131v350h131v-297q0 -26 5 -49t17 -40t31.5 -27t48.5 -10q31 0 53.5 11.5t37 31.5t21.5 45.5t7 54.5v280h132v-517h-131zM271 628q0 -17 -7 -30t-19 -22.5t-26.5 -14.5t-29.5 -5t-30 5t-27 14.5t-19 22.5t-7 30
q0 16 7 29.5t19 23t27 14.5t30 5t29.5 -5t26.5 -14.5t19 -23t7 -29.5zM494 628q0 -17 -7 -30t-19 -22.5t-27 -14.5t-30 -5t-30 5t-27 14.5t-19 22.5t-7 30q0 16 7 29.5t19 23t27 14.5t30 5t30 -5t27 -14.5t19 -23t7 -29.5z" />
    <glyph glyph-name="dagger" unicode="&#x2020;" horiz-adv-x="596" 
d="M364 401l8 -607h-148l8 607l-187 -8v122l187 -8l-8 213h148l-8 -213l187 8v-122z" />
    <glyph glyph-name="degree" unicode="&#xb0;" horiz-adv-x="368" 
d="M274 585q0 38 -26 64.5t-64 26.5q-18 0 -34.5 -7t-29 -19.5t-20 -29t-7.5 -35.5q0 -39 27 -65t64 -26q38 0 64 26t26 65zM331 585q0 -32 -11 -58.5t-31 -46.5t-47 -31t-58 -11q-32 0 -58.5 11t-46.5 31t-31 46.5t-11 58.5q0 31 11 58t31 46.5t46.5 31t58.5 11.5
q31 0 58 -11.5t46.5 -31t31 -46.5t11.5 -58z" />
    <glyph glyph-name="cent" unicode="&#xa2;" horiz-adv-x="580" 
d="M550 296q-11 -88 -66 -140.5t-137 -63.5v-92h-81v92q-51 6 -92 28.5t-70 57.5t-44.5 80.5t-15.5 97.5q0 53 15.5 99.5t44 82.5t69.5 59t93 30v93h81v-91q40 -4 75 -18.5t62 -38.5t44.5 -58t21.5 -77h-125q-6 46 -36.5 71.5t-76.5 25.5q-39 0 -65.5 -15t-42.5 -40
t-22.5 -57t-6.5 -66q0 -32 7 -62.5t22.5 -54.5t41 -38.5t62.5 -14.5q48 0 80 31.5t37 78.5h125v0z" />
    <glyph glyph-name="sterling" unicode="&#xa3;" horiz-adv-x="578" 
d="M575 67q-35 -38 -76.5 -61t-94.5 -23q-39 0 -75 13.5t-73 19.5q-26 4 -49.5 5.5t-45.5 -1.5t-44 -12t-44 -25l-56 77q22 16 42 34.5t36 39.5t25.5 45.5t9.5 53.5q0 19 -3.5 38.5t-11.5 35.5h-102v87h69q-17 29 -31 61.5t-14 65.5q0 53 21 92.5t56 65.5t80 39t94 13
q120 0 187 -64t66 -185h-128q2 29 -5 55t-22.5 45.5t-39 31t-54.5 11.5q-49 0 -83.5 -24t-34.5 -76q0 -16 5.5 -33t13.5 -34t16.5 -33t15.5 -31h127v-86h-102q7 -15 9.5 -31.5t2.5 -33.5q0 -42 -20 -77.5t-52 -61.5q29 20 66 20q21 0 41.5 -5.5t40.5 -12t40 -12t40 -5.5
q18 0 32.5 6.5t27 17t23 23l20.5 25.5l54 -94v0z" />
    <glyph glyph-name="section" unicode="&#xa7;" horiz-adv-x="613" 
d="M446 239q0 28 -12.5 46t-32 29t-43.5 17l-46 12q-19 5 -37.5 9t-38.5 9q-29 -11 -49 -32t-20 -54q0 -29 12.5 -46.5t32 -28.5t43 -17l46.5 -12q19 -5 37.5 -9t38.5 -9q29 11 49 32t20 54zM594 -33q0 -54 -25.5 -90.5t-65.5 -58.5t-88.5 -31.5t-93.5 -9.5q-50 0 -99.5 9
t-89.5 32t-66 61t-29 97h141q2 -29 14 -50t30.5 -35t43 -21t51.5 -7q22 0 45 4.5t42 15t30.5 28t11.5 44.5q0 22 -14.5 38.5t-37 28.5t-51 20.5t-56.5 15t-53.5 11t-41.5 9.5q-35 10 -66 23.5t-55 34.5t-38 50.5t-14 70.5q0 49 19 86.5t57 66.5q-39 25 -57.5 57t-18.5 80
q0 54 25.5 90.5t65.5 58.5t88.5 31.5t93.5 9.5q50 0 99.5 -9t89.5 -32t66 -61.5t29 -96.5h-141q-2 29 -14 50t-30.5 35t-43 21t-51.5 7q-23 0 -45.5 -4.5t-41.5 -15t-30.5 -28t-11.5 -44.5q0 -22 14.5 -38.5t37 -28.5t51 -20.5t56.5 -15t53.5 -11t41.5 -9.5
q34 -10 65.5 -23.5t55.5 -34.5t38 -50.5t14 -70.5q0 -94 -76 -153q39 -25 57.5 -57t18.5 -80z" />
    <glyph glyph-name="bullet" unicode="&#x2022;" horiz-adv-x="364" 
d="M327 360q0 -30 -11.5 -57t-31 -46.5t-46 -31t-56.5 -11.5t-56.5 11.5t-46 31t-31 46.5t-11.5 57t11.5 56.5t31 46t46 31t56.5 11.5t56.5 -11.5t46 -31t31 -46t11.5 -56.5z" />
    <glyph glyph-name="paragraph" unicode="&#xb6;" horiz-adv-x="578" 
d="M431 -206v854h-79v-854h-92v563q-53 0 -94 13t-70 36.5t-44 56.5t-15 72q0 51 17.5 86.5t49 57.5t75 31.5t95.5 9.5h250v-926h-93z" />
    <glyph glyph-name="germandbls" unicode="&#xdf;" horiz-adv-x="591" 
d="M554 216q0 -53 -16.5 -93.5t-47 -69t-73 -43t-93.5 -14.5q-17 0 -33 1t-33 4v102q8 -2 17 -3t18 -1q61 0 95 34t34 95q0 38 -12 62.5t-32.5 39t-48.5 20t-60 5.5h-11v76h9q25 0 47.5 4.5t40 16t27.5 31t10 49.5q0 47 -29.5 72t-74.5 25q-54 0 -78.5 -32t-24.5 -83v-514
h-131v503q0 109 61 170.5t170 61.5q42 0 83 -11t73.5 -34t53 -57.5t20.5 -81.5q0 -111 -101 -152q35 -4 61.5 -21t44 -42t26 -56.5t8.5 -63.5z" />
    <glyph glyph-name="registered" unicode="&#xae;" horiz-adv-x="452" 
d="M272 587q0 18 -14.5 23t-30.5 5h-37v-59h41q17 0 29 5.5t12 25.5zM309 584q0 -27 -15 -39.5t-36 -14.5l52 -87h-40l-48 84q-5 -1 -16.5 -0.5t-15.5 0.5v-84h-36v201h74q40 0 60.5 -14t20.5 -46zM369 545q0 30 -11 56t-30.5 45.5t-45.5 30.5t-56 11t-56 -11t-45.5 -30.5
t-30.5 -45.5t-11 -56t11 -56t30.5 -45.5t45.5 -30.5t56 -11t56 11t45 30.5t30 45.5t11 56h1zM415 545q0 -39 -15 -73t-40.5 -59.5t-60 -40t-73.5 -14.5t-73.5 14.5t-60 40t-40.5 59.5t-15 73t15 73t40.5 59.5t60 40t73.5 14.5t73.5 -14.5t60 -40t40.5 -59.5t15 -73z" />
    <glyph glyph-name="copyright" unicode="&#xa9;" horiz-adv-x="822" 
d="M598 300q-14 -78 -63.5 -119t-116.5 -41q-47 0 -85.5 16.5t-65.5 46t-42 69t-15 85.5t14 86t41 68.5t65 45t86 16.5q68 0 118 -38.5t61 -114.5h-67q-8 41 -38 61t-72 20q-63 0 -97.5 -39.5t-34.5 -102.5q0 -31 9.5 -58t27 -46.5t41.5 -31t54 -11.5q40 0 71 21t39 67h70v0
zM700 360q0 61 -22.5 114t-61.5 93t-91.5 63t-113.5 23t-113.5 -23t-91.5 -63t-61.5 -93t-22.5 -114t22.5 -114.5t61.5 -93t91.5 -62.5t113.5 -23t113.5 23t91.5 62.5t61.5 93t22.5 114.5zM785 360q0 -78 -29.5 -146t-80 -118.5t-118.5 -80t-146 -29.5t-146 29.5t-118.5 80
t-80 118.5t-29.5 146t29.5 146t80 118.5t118.5 80t146 29.5t146 -29.5t118.5 -80t80 -118.5t29.5 -146z" />
    <glyph glyph-name="trademark" unicode="&#x2122;" horiz-adv-x="878" 
d="M241 650v-326h-83v326h-28q-22 0 -29.5 -8t-7.5 -26l-56 28q0 14 2.5 28t10 24.5t21.5 17t37 6.5h254v-70h-121zM741 324v266q0 28 -9.5 50.5t-40.5 22.5q-16 0 -25.5 -6t-15 -16.5t-7 -23.5t-1.5 -27v-266h-83v266q0 28 -9.5 50.5t-40.5 22.5q-16 0 -25.5 -6t-15 -16.5
t-7 -23.5t-1.5 -27v-266h-83v276q0 65 33.5 97t98.5 32q28 0 51 -7.5t40 -24.5q17 17 40.5 24.5t50.5 7.5q65 0 99 -32t34 -97v-276h-83z" />
    <glyph glyph-name="acute" unicode="&#xb4;" horiz-adv-x="0" 
d="M265 567h-91l112 148h141z" />
    <glyph glyph-name="dieresis" unicode="&#xa8;" horiz-adv-x="0" 
d="M494 628q0 -33 -25.5 -52.5t-56.5 -19.5q-15 0 -30 5t-27 14.5t-19 22.5t-7 30q0 16 7 29.5t19 23t27 14.5t30 5q31 0 56.5 -19.5t25.5 -52.5zM272 628q0 -17 -7 -30t-19 -22.5t-26.5 -14.5t-29.5 -5t-30 5t-27 14.5t-19 22.5t-7 30q0 16 7 29.5t19 23t27 14.5t30 5
t29.5 -5t26.5 -14.5t19 -23t7 -29.5z" />
    <glyph glyph-name="notequal" unicode="&#x2260;" horiz-adv-x="595" 
d="M45 308v104h505v-104h-505z" />
    <glyph glyph-name="AE" unicode="&#xc6;" horiz-adv-x="915" 
d="M385 486q0 25 -3.5 49.5t-13.5 44t-28.5 31.5t-47.5 12q-30 0 -48 -12t-28 -31.5t-13.5 -44t-3.5 -49.5v-69h186v69zM385 0v303h-186v-303h-145v503q0 118 61 176t177 58q115 0 171 -61v44h399v-122h-332v-181h300v-114h-300v-181h340v-122h-485z" />
    <glyph glyph-name="Oslash" unicode="&#xd8;" horiz-adv-x="773" 
d="M591 357q0 45 -9.5 82.5t-26.5 67.5l-311 -343q29 -32 65.5 -47t77.5 -15q40 0 77 15t65 46t45 79.5t17 114.5zM531 548q-29 33 -66.5 48.5t-77.5 15.5t-77 -15t-65.5 -46t-45.5 -79.5t-17 -114.5q0 -47 10 -85.5t27 -67.5l312 344v0zM736 357q0 -80 -24 -148
t-69.5 -118.5t-110 -79t-145.5 -28.5q-71 0 -129 22t-101 62l-80 -88l-34 30l81 90q-42 50 -64.5 115.5t-22.5 142.5q0 79 24.5 147.5t69.5 119t110 79t146 28.5q72 0 130 -22.5t102 -63.5l75 82l34 -29l-77 -85q42 -49 63.5 -114t21.5 -142z" />
    <glyph glyph-name="infinity" unicode="&#x221e;" horiz-adv-x="211" 
d="M54 0v266h103v-266h-103zM54 454v266h103v-266h-103z" />
    <glyph glyph-name="plusminus" unicode="&#xb1;" horiz-adv-x="595" 
d="M45 107v103h505v-103h-505zM349 385v-125h-103v125h-201v103h201v125h103v-125h201v-103h-201z" />
    <glyph glyph-name="lessequal" unicode="&#x2264;" horiz-adv-x="626" 
d="M613 211q0 -63 -25.5 -106.5t-67 -70.5t-94.5 -39t-107 -12q-42 0 -95 10.5t-100 39t-79.5 78.5t-32.5 129h145q0 -41 13 -69.5t36 -46.5t55 -26.5t70 -8.5q24 0 48.5 6t44 18.5t32 33t12.5 50.5q0 29 -13 47t-37.5 30.5t-60 22l-79.5 21.5q-43 11 -86 24t-77.5 34.5
t-56 55t-21.5 87.5q0 58 23.5 99.5t61.5 68t86.5 38.5t99.5 12q56 0 106 -12t88.5 -39t61.5 -71t25 -107h-137q1 33 -11 56.5t-32 38t-46.5 21.5t-54.5 7q-21 0 -45 -4.5t-44 -15t-32.5 -28.5t-12.5 -45q1 -30 20.5 -49t50.5 -31.5t70.5 -21.5t80.5 -20q42 -11 81.5 -25
t69.5 -37t48 -57t18 -86zM370 774h-108l-118 146h99l74 -94l72 94h100z" />
    <glyph glyph-name="greaterequal" unicode="&#x2265;" horiz-adv-x="520" 
d="M497 155q0 -48 -21 -80.5t-54.5 -52t-75.5 -27.5t-84 -8q-48 0 -91 10.5t-76 32.5t-52.5 57t-20.5 85h126q1 -52 34 -76.5t84 -24.5q16 0 34.5 4t34 12t25.5 21.5t10 32.5q0 20 -8.5 33t-25 21.5t-41.5 15t-59 12.5q-47 9 -84 21t-62.5 30t-39 43t-13.5 61q0 39 18 67.5
t48.5 47.5t70 28t81.5 9t82.5 -8t72.5 -27t51.5 -50.5t21.5 -78.5h-120q-2 45 -32 66.5t-72 21.5q-27 0 -45.5 -6.5t-29.5 -16t-16 -21.5t-5 -22q0 -24 23 -39t54.5 -24.5t64.5 -15t52 -11.5q27 -8 52 -18.5t44.5 -27t31.5 -40t12 -57.5zM315 578h-108l-119 145h100l73 -94
l73 94h100z" />
    <glyph glyph-name="yen" unicode="&#xa5;" 
d="M530 574q0 -193 -166 -225v-59h149v-84h-149v-59h149v-84h-148v-63h-145v63h-149v84h149v59h-149v84h149v59q-83 16 -124.5 73t-41.5 152v146h145v-129q0 -25 3.5 -49.5t13.5 -44t28.5 -31.5t47.5 -12q30 0 48 12t28 31.5t13.5 44t3.5 49.5v129h145v-146v0z" />
    <glyph glyph-name="mu" unicode="&#xb5;" horiz-adv-x="592" 
d="M407 0v83q-18 -39 -49 -61t-70 -27q-32 -4 -57.5 3.5t-45.5 23.5v-228h-131v723h131v-297q0 -26 5 -49t17 -40t31.5 -27t48.5 -10q31 0 53.5 11.5t37 31.5t21.5 45.5t7 54.5v280h132v-517h-131z" />
    <glyph glyph-name="partialdiff" unicode="&#x2202;" horiz-adv-x="592" 
d="M538 9q0 -44 -10.5 -85.5t-38.5 -74t-76 -52.5t-124 -20q-44 0 -85.5 8t-75 27.5t-56 52t-26.5 81.5h130q6 -41 37.5 -64.5t71.5 -23.5q32 0 55 12t38 32t22 46t7 54v81q-29 -51 -72 -73.5t-101 -22.5q-82 0 -131 49t-49 131v350h131v-297q0 -26 5 -49t17 -40t31.5 -27
t48.5 -10q31 0 53.5 11.5t37 31.5t21.5 45.5t7 54.5v280h132v-508v0zM277 576h-91l112 147h141z" />
    <glyph glyph-name="summation" unicode="&#x2211;" horiz-adv-x="617" 
d="M620 134q0 -25 -4 -49t-17.5 -43t-38 -30.5t-65.5 -11.5h-480v118l400 480h-373v122h561v-110l-401 -488h253q42 0 55.5 15t13.5 46l96 -49v0zM372 774h-108l-118 146h99l74 -94l73 94h99z" />
    <glyph glyph-name="product" unicode="&#x220f;" horiz-adv-x="587" 
d="M412 390q0 31 -10 52t-28.5 33.5t-44 18t-56.5 5.5h-74v-221h66q29 0 55.5 5.5t47 18.5t32.5 34.5t12 53.5zM550 395q0 -58 -19.5 -101.5t-54 -72t-82.5 -43t-105 -14.5h-90v-164h-145v720h145v-99h105q65 0 111.5 -19.5t76.5 -51t44 -72.5t14 -83z" />
    <glyph glyph-name="pi" unicode="&#x3c0;" horiz-adv-x="647" 
d="M479 254q0 37 -8.5 69.5t-27.5 56.5t-49.5 38t-74.5 14q-20 0 -43.5 -7t-43.5 -19.5t-33.5 -30t-13.5 -39.5v-141q0 -26 12.5 -46.5t33 -34.5t45 -21.5t48.5 -7.5q80 0 117.5 47t37.5 122zM610 254q0 -58 -19.5 -107t-54 -84.5t-82.5 -55.5t-105 -20q-51 0 -93 17t-71 48
v-258h-131v926h131v-249q30 29 71 44t88 15q60 0 109 -21t84 -57.5t54 -87t19 -110.5z" />
    <glyph glyph-name="integral" unicode="&#x222b;" horiz-adv-x="739" 
d="M442 774h-108l-118 146h99l74 -94l73 94h99zM702 280q-3 -66 -28.5 -120.5t-68 -94t-99 -61t-122.5 -21.5q-81 0 -145.5 29t-109.5 80t-68.5 119.5t-23.5 146.5q0 80 23.5 149.5t68.5 120.5t110.5 80t149.5 29q61 0 115.5 -17t96.5 -50.5t68.5 -83t32.5 -113.5h-142
q-4 33 -19.5 60t-39.5 45.5t-53.5 29t-61.5 10.5q-54 0 -92.5 -23t-63.5 -60t-36.5 -83.5t-11.5 -93.5q0 -46 11.5 -91.5t35.5 -82t61.5 -59.5t90.5 -23q41 0 72 13.5t53 37.5t35 56.5t19 70.5h142v0z" />
    <glyph glyph-name="ordfeminine" unicode="&#xaa;" horiz-adv-x="429" 
d="M293 615q0 12 -8 22.5t-20 18t-25.5 11.5t-25.5 4q-26 0 -44 -8t-29 -22t-16 -33t-5 -41q0 -45 21.5 -72t69.5 -27q14 0 28.5 4t26.5 12.5t19.5 20.5t7.5 27v83zM293 414v26q-39 -33 -97 -33q-35 0 -64 12t-50 33t-32.5 50.5t-11.5 64.5t11.5 65.5t32.5 52.5t51 34.5
t66 12.5q26 0 50 -7.5t44 -23.5v24h81v-311h-81z" />
    <glyph glyph-name="ordmasculine" unicode="&#xba;" horiz-adv-x="399" 
d="M280 570q0 18 -4 36t-13.5 32.5t-25 23.5t-37.5 9t-37.5 -9t-25 -23.5t-14 -32.5t-4.5 -36t4.5 -36.5t14 -33t25 -24t37.5 -9.5t37.5 9.5t25 24t13.5 33t4 36.5zM362 570q0 -32 -10 -62t-30 -52.5t-50.5 -36t-72.5 -13.5q-41 0 -71.5 13.5t-50.5 36t-30 52.5t-10 62
t10 61t30 51.5t51 36t72 13.5t71.5 -13.5t50.5 -36t30 -51.5t10 -61z" />
    <glyph glyph-name="Omega" unicode="&#x2126;" horiz-adv-x="500" 
d="M500 112q0 -21 -3.5 -41t-15 -36t-32.5 -25.5t-55 -9.5h-382v105l287 315h-263v97h430v-104l-283 -316h179q38 0 49.5 14t11.5 40l77 -39v0zM305 578h-109l-118 145h99l74 -94l73 94h99z" />
    <glyph glyph-name="ae" unicode="&#xe6;" horiz-adv-x="1005" 
d="M462 335q0 22 -13.5 40t-33.5 30.5t-43.5 19.5t-43.5 7q-44 0 -74.5 -14t-49.5 -38t-27.5 -56.5t-8.5 -69.5q0 -75 37.5 -122t117.5 -47q24 0 48.5 7.5t45 21.5t33 34.5t12.5 46.5v140zM833 365q-12 32 -39 49.5t-64 17.5q-34 0 -58.5 -11.5t-41 -31t-25 -45.5t-9.5 -55
q0 -2 -0.5 -5.5t-0.5 -5.5l238 87v0zM968 195q-6 -50 -27 -88.5t-53 -65t-74 -40.5t-91 -14q-53 0 -93.5 20.5t-67.5 52.5v-60h-100v52q-29 -31 -71 -48t-93 -17q-57 0 -105 20t-82.5 55.5t-54 84.5t-19.5 107q0 59 19 109.5t54 87.5t84 58t109 21q47 0 88 -15t71 -44v46
h100v-64q27 35 68.5 56t96.5 21q46 0 87.5 -12t74 -36.5t53.5 -61t26 -84.5l-370 -135q8 -48 38.5 -82t88.5 -34q49 0 81 31t36 79h126v0z" />
    <glyph glyph-name="oslash" unicode="&#xf8;" horiz-adv-x="601" 
d="M433 259q0 25 -5 48.5t-16 45.5l-205 -225q15 -20 38.5 -31.5t55.5 -11.5q37 0 62 15.5t40.5 40.5t22.5 56t7 62zM395 389q-15 20 -38.5 31.5t-55.5 11.5q-37 0 -62.5 -15.5t-41 -40.5t-22.5 -55.5t-7 -61.5q0 -26 4.5 -50.5t15.5 -45.5l207 226v0zM564 259
q0 -54 -16 -103t-48.5 -86.5t-82 -60t-116.5 -22.5q-54 0 -95 15t-73 41l-56 -62l-28 26l56 61q-35 38 -51.5 87.5t-16.5 103.5q0 53 16 102t49 86.5t82.5 60t116.5 22.5q53 0 94.5 -15t73.5 -42l48 54l27 -24l-47 -54q34 -37 50.5 -86t16.5 -104z" />
    <glyph glyph-name="questiondown" unicode="&#xbf;" horiz-adv-x="569" 
d="M532 237q-1 -49 -16 -94t-46.5 -79.5t-79 -55t-113.5 -20.5q-61 0 -106 16.5t-74.5 43.5t-44 61t-15.5 70q-1 43 11 71t30 47.5t39.5 33t41.5 27.5q21 15 35 28.5t22.5 28.5t11.5 33.5t3 42.5v70h123v-70q0 -23 -2 -47.5t-10 -49.5t-24 -49t-45 -44q-9 -6 -25 -15
t-31.5 -22.5t-27 -32t-11.5 -43.5q0 -42 28 -64t75 -22q59 0 87.5 39t25.5 96h138v0zM375 659q0 -17 -7 -30t-19 -22.5t-27 -14.5t-30 -5t-29.5 5t-26.5 14.5t-19 22.5t-7 30q0 16 7 29.5t19 23t26.5 14.5t29.5 5t30 -5t27 -14.5t19 -23t7 -29.5z" />
    <glyph glyph-name="exclamdown" unicode="&#xa1;" horiz-adv-x="239" 
d="M43 0l42 548h69l43 -548h-154zM202 660q0 -17 -7 -30t-19 -22.5t-26.5 -14.5t-29.5 -5t-30 5t-27 14.5t-19 22.5t-7 30q0 16 7 29.5t19 23t27 14.5t30 5t29.5 -5t26.5 -14.5t19 -23t7 -29.5z" />
    <glyph glyph-name="logicalnot" unicode="&#xac;" horiz-adv-x="239" 
d="M185 406v-406h-131v304l-54 -44v73l54 44v343h131v-241l54 43v-73z" />
    <glyph glyph-name="radical" unicode="&#x221a;" horiz-adv-x="601" 
d="M433 250q0 31 -7.5 60.5t-23.5 52t-41.5 36t-60.5 13.5t-60 -13.5t-41 -36t-23.5 -52t-7.5 -60.5t7.5 -60.5t23.5 -53t41 -37.5t60 -14q36 0 61 14t41 37.5t23.5 53t7.5 60.5zM564 279q0 -63 -16.5 -116.5t-49.5 -92.5t-82.5 -61t-115.5 -22q-60 0 -108.5 18t-83 51.5
t-53 82t-18.5 109.5q0 54 17 99.5t48 79.5t75.5 53t99.5 19q32 0 64.5 -9.5t55.5 -29.5q-20 34 -50 66.5t-61 58.5l-84 -46l-51 54l72 40q-27 25 -54 41l94 57q5 -3 14 -9l18.5 -12.5l18.5 -13l13 -9.5l78 44l53 -54l-71 -40q38 -36 70.5 -76t56 -85t37 -94t13.5 -103z" />
    <glyph glyph-name="florin" unicode="&#x192;" horiz-adv-x="360" 
d="M387 629q-17 3 -43 3q-32 0 -52 -13.5t-29 -56.5l-9 -45h106l-24 -92h-106l-117 -500q-10 -44 -29 -70t-42.5 -40t-50.5 -18.5t-53 -4.5l-26 103q32 0 51 14.5t30 58.5l106 457h-107l22 83h107l21 94q10 44 28.5 70t42.5 40t51 18.5t54 4.5q28 0 51 -2t45 -3z" />
    <glyph glyph-name="approxequal" unicode="&#x2248;" horiz-adv-x="464" 
d="M391 128l-159 160l-159 -160l-73 73l159 159l-159 160l73 72l159 -160l159 161l73 -73l-160 -160l160 -159z" />
    <glyph glyph-name="Delta" unicode="&#x2206;" horiz-adv-x="580" 
d="M356 578h-109l-118 145h99l74 -94l73 94h99zM543 195q-6 -50 -27 -88.5t-53 -65t-74 -40.5t-91 -14q-58 0 -106 20.5t-82.5 56t-53.5 84.5t-19 106q0 59 19 109.5t53.5 87.5t84 58t109.5 21q45 0 86.5 -12t74 -36.5t53.5 -61t26 -85.5h-125q-6 47 -36.5 72t-76.5 25
q-39 0 -65.5 -15t-42.5 -40t-22.5 -57t-6.5 -66q0 -32 7 -62.5t22.5 -54t41 -38t62.5 -14.5q48 0 80 31t37 79h125v0z" />
    <glyph glyph-name="guillemotleft" unicode="&#xab;" horiz-adv-x="389" 
d="M45 302v116l141 133v-109l-80 -82l79 -80v-111zM203 302v116l141 133v-109l-80 -82l80 -80v-111z" />
    <glyph glyph-name="guillemotright" unicode="&#xbb;" horiz-adv-x="389" 
d="M45 169v109l80 82l-80 80v111l140 -133v-116zM203 169v109l80 82l-80 80v111l141 -133v-116z" />
    <glyph glyph-name="ellipsis" unicode="&#x2026;" horiz-adv-x="1000" 
d="M250 65q0 -17 -7 -30t-19 -23t-27 -15t-30 -5t-30 5t-27 15t-19 23t-7 30q0 16 7 29.5t19 23t27 14.5t30 5t30 -5t27 -14.5t19 -23t7 -29.5zM583 65q0 -17 -7 -30t-19 -23t-27 -15t-30 -5t-30 5t-27 15t-19 23t-7 30q0 16 7 29.5t19 23t27 14.5t30 5t30 -5t27 -14.5
t19 -23t7 -29.5zM916 65q0 -17 -7 -30t-19 -23t-27 -15t-30 -5t-30 5t-27 15t-19 23t-7 30q0 16 7 29.5t19 23t27 14.5t30 5t30 -5t27 -14.5t19 -23t7 -29.5z" />
    <glyph glyph-name="Agrave" unicode="&#xc0;" 
d="M385 486q0 25 -3.5 49.5t-13.5 44t-28.5 31.5t-47.5 12q-30 0 -48 -12t-28 -31.5t-13.5 -44t-3.5 -49.5v-69h186v69zM385 0v303h-186v-303h-145v503q0 118 61 176t177 58q119 0 178.5 -59.5t59.5 -174.5v-503h-145zM326 764l-159 148h141l109 -148h-91z" />
    <glyph glyph-name="Atilde" unicode="&#xc3;" 
d="M385 486q0 25 -3.5 49.5t-13.5 44t-28.5 31.5t-47.5 12q-30 0 -48 -12t-28 -31.5t-13.5 -44t-3.5 -49.5v-69h186v69zM385 0v303h-186v-303h-145v503q0 118 61 176t177 58q119 0 178.5 -59.5t59.5 -174.5v-503h-145zM475 889q-1 -23 -7.5 -44t-18.5 -37t-30 -25t-42 -9
q-22 0 -41 7t-36.5 15.5t-34.5 15.5t-33 7q-18 0 -29.5 -16.5t-13.5 -32.5h-57q0 19 5 40t17 38t30 28.5t43 11.5q21 0 41.5 -7t39.5 -16l34.5 -16t27.5 -7q40 0 46 47h59v0z" />
    <glyph glyph-name="Otilde" unicode="&#xd5;" horiz-adv-x="773" 
d="M591 360q0 48 -12 94t-36.5 82.5t-63 59t-92.5 22.5t-93 -22.5t-63.5 -59t-36.5 -82.5t-12 -94t12 -94t36.5 -82.5t63.5 -59t93 -22.5t92.5 22.5t63 59t36.5 82.5t12 94zM736 360q0 -78 -24 -147t-69 -120t-109.5 -80.5t-146.5 -29.5t-147 29.5t-110 80.5t-69 120
t-24 147t24 147t69 120t110 80.5t147 29.5t146.5 -29.5t109.5 -80.5t69 -120t24 -147zM572 889q-1 -23 -7.5 -44t-19 -37t-30.5 -25t-42 -9q-21 0 -40 7t-36.5 15.5t-34.5 15.5t-33 7q-18 0 -30 -16.5t-14 -32.5h-57q0 19 5.5 40t17.5 38t30 28.5t43 11.5q21 0 41.5 -7
t39 -16t34.5 -16t27 -7q19 0 31.5 11.5t15.5 35.5h59v0z" />
    <glyph glyph-name="OE" unicode="&#x152;" horiz-adv-x="1089" 
d="M560 473q-4 33 -19.5 60t-39.5 45.5t-53.5 29t-61.5 10.5q-54 0 -92.5 -23t-63.5 -60t-36.5 -83.5t-11.5 -93.5q0 -46 11.5 -91.5t35.5 -82t61.5 -59.5t90.5 -23q41 0 72 13.5t53 37.5t35 56.5t19 70.5v193zM579 0v79q-32 -44 -80.5 -70t-114.5 -26q-81 0 -145.5 29
t-109.5 80t-68.5 119.5t-23.5 146.5q0 80 23.5 149.5t68.5 120.5t110.5 80t149.5 29q54 0 105.5 -19t84.5 -53v55h464v-122h-332v-181h301v-114h-301v-181h340v-122h-472z" />
    <glyph glyph-name="oe" unicode="&#x153;" horiz-adv-x="976" 
d="M433 259q0 31 -7 61.5t-22.5 55.5t-40.5 40.5t-62 15.5t-62.5 -15.5t-41 -40.5t-22.5 -55.5t-7 -61.5t7 -62t22.5 -56t41 -40.5t62.5 -15.5t62 15.5t40.5 40.5t22.5 56t7 62zM804 364q-11 32 -38 50t-65 18q-34 0 -58.5 -11.5t-40.5 -31t-24.5 -46t-10.5 -55.5v-10
l237 86v0zM939 195q-6 -50 -27 -88.5t-53 -65t-74 -40.5t-91 -14q-66 0 -115 28.5t-79 75.5q-29 -46 -78.5 -75t-120.5 -29q-67 0 -116.5 22.5t-82.5 60t-49 86.5t-16 103q0 53 16 102t49 86.5t82.5 60t116.5 22.5q72 0 122 -30t78 -77q30 48 79.5 77t118.5 29
q46 0 87.5 -12t74 -36.5t53 -61t25.5 -84.5l-370 -135q8 -48 39 -82t89 -34q49 0 80.5 31.5t36.5 79.5h125v0z" />
    <glyph glyph-name="endash" unicode="&#x2013;" horiz-adv-x="590" 
d="M45 214v107h500v-107h-500z" />
    <glyph glyph-name="emdash" unicode="&#x2014;" horiz-adv-x="1090" 
d="M45 214v107h1000v-107h-1000z" />
    <glyph glyph-name="quotedblleft" unicode="&#x201c;" horiz-adv-x="423" 
d="M161 402l-161 278l89 52l161 -278zM334 402l-161 278l90 52l160 -278z" />
    <glyph glyph-name="quotedblright" unicode="&#x201d;" horiz-adv-x="423" 
d="M89 402l-89 52l161 278l89 -52zM263 402l-90 52l161 278l89 -52z" />
    <glyph glyph-name="quoteleft" unicode="&#x2018;" horiz-adv-x="250" 
d="M161 402l-161 278l89 52l161 -278z" />
    <glyph glyph-name="quoteright" unicode="&#x2019;" horiz-adv-x="250" 
d="M89 402l-89 52l161 278l89 -52z" />
    <glyph glyph-name="divide" unicode="&#xf7;" horiz-adv-x="595" 
d="M376 151q0 -32 -21.5 -55.5t-56.5 -23.5t-57 23.5t-22 55.5q0 33 23 56t56 23q32 0 55 -23t23 -56zM45 308v104h505v-104h-505zM376 569q0 -33 -21.5 -56t-56.5 -23t-57 23t-22 56t23 56t56 23q32 0 55 -23.5t23 -55.5z" />
    <glyph glyph-name="lozenge" unicode="&#x25ca;" horiz-adv-x="637" 
d="M455 362q0 52 -13 95.5t-40 75t-67.5 48.5t-95.5 17h-40v-185h138v-83h-138v-208h42q55 0 95 18.5t66.5 50.5t39.5 76.5t13 95.5v-1zM600 361q0 -85 -23.5 -152t-68.5 -113.5t-111 -71t-151 -24.5h-192v329h-57v84h57v307h231q81 0 140.5 -27.5t98.5 -76t57.5 -114
t18.5 -141.5z" />
    <glyph glyph-name="ydieresis" unicode="&#xff;" horiz-adv-x="592" 
d="M538 9q0 -44 -10.5 -85.5t-38.5 -74t-76 -52.5t-124 -20q-44 0 -85.5 8t-75 27.5t-56 52t-26.5 81.5h130q6 -41 37.5 -64.5t71.5 -23.5q32 0 55 12t38 32t22 46t7 54v81q-29 -51 -72 -73.5t-101 -22.5q-82 0 -131 49t-49 131v350h131v-297q0 -26 5 -49t17 -40t31.5 -27
t48.5 -10q31 0 53.5 11.5t37 31.5t21.5 45.5t7 54.5v280h132v-508v0zM271 636q0 -16 -7 -29.5t-19 -23t-27 -14.5t-30 -5t-29.5 5t-26.5 14.5t-19 23t-7 29.5t7 29.5t19 23.5t26.5 15t29.5 5t30 -5t27 -15t19 -23.5t7 -29.5zM493 636q0 -16 -7 -29.5t-19 -23t-26.5 -14.5
t-29.5 -5t-30 5t-27 14.5t-19 23t-7 29.5t7 29.5t19 23.5t27 15t30 5t29.5 -5t26.5 -15t19 -23.5t7 -29.5z" />
    <glyph glyph-name="Ydieresis" unicode="&#x178;" 
d="M530 537q0 -97 -42 -153t-123 -72v-312h-145v312q-166 32 -166 225v183h145v-166q0 -25 3.5 -49.5t13.5 -44t28.5 -31.5t47.5 -12q30 0 48 12t28 31.5t13.5 44t3.5 49.5v166h145v-183v0zM264 825q0 -17 -7 -30t-19 -22.5t-26.5 -14.5t-29.5 -5t-30 5t-27 14.5t-19 22.5
t-7 30q0 16 7 29.5t19 23t27 14.5t30 5t29.5 -5t26.5 -14.5t19 -23t7 -29.5zM486 825q0 -17 -7 -30t-19 -22.5t-26.5 -14.5t-29.5 -5t-30 5t-27 14.5t-19 22.5t-7 30q0 16 7 29.5t19 23t27 14.5t30 5t29.5 -5t26.5 -14.5t19 -23t7 -29.5z" />
    <glyph glyph-name="fraction" unicode="&#x2044;" horiz-adv-x="167" 
d="M-81 0h-77l405 720h77z" />
    <glyph glyph-name="currency" unicode="&#xa4;" horiz-adv-x="574" 
d="M439 345q0 34 -13 62.5t-34 48t-48.5 30.5t-56.5 11t-56.5 -11t-49 -31t-34.5 -48t-13 -62t13 -62t34.5 -48t49 -31t56.5 -11t56.5 11t48.5 31t34 48t13 62zM537 345q0 -42 -14 -82t-37 -66l57 -58l-52 -52l-58 59q-28 -25 -65.5 -38t-80.5 -13q-44 0 -82 12.5t-66 37.5
l-59 -58l-52 52l59 58q-22 26 -36 66t-14 82q0 44 14.5 83t35.5 64l-59 57l54 53l57 -56q25 22 64.5 35.5t83.5 13.5q42 0 81.5 -13.5t64.5 -35.5l58 56l52 -52l-57 -58q22 -25 36.5 -64t14.5 -83z" />
    <glyph glyph-name="guilsinglleft" unicode="&#x2039;" horiz-adv-x="231" 
d="M45 302v116l141 133v-109l-80 -82l80 -80v-111z" />
    <glyph glyph-name="guilsinglright" unicode="&#x203a;" horiz-adv-x="231" 
d="M45 169v109l80 82l-80 80v111l141 -133v-116z" />
    <glyph glyph-name="fi" unicode="&#xfb01;" horiz-adv-x="479" 
d="M293 0v425h-108v-425h-131v425h-54v83h54v94q0 43 12.5 69.5t32.5 40.5t45.5 18.5t51.5 4.5q29 0 52 -2t46 -3v-101q-18 3 -45 3q-16 0 -28 -2t-20 -9t-12 -20t-4 -35v-49h240v-517h-132z" />
    <glyph glyph-name="fl" unicode="&#xfb02;" horiz-adv-x="479" 
d="M293 0v629q-9 2 -21 2.5t-23 0.5q-32 0 -48 -13.5t-16 -56.5v-45h54v-92h-54v-425h-131v425h-54v83h54v94q0 43 12.5 69.5t32.5 40.5t45.5 18.5t51.5 4.5q23 0 47 -5.5t46 -5.5q37 -1 67 -1q26 0 46.5 -0.5t22.5 -0.5v-722h-132z" />
    <glyph glyph-name="daggerdbl" unicode="&#x2021;" horiz-adv-x="596" 
d="M357 36l15 -242h-148l15 242l-194 -15v123l194 -15v296l-194 -15v123l194 -15l-15 202h148l-15 -202l194 15v-123l-194 15v-296l194 15v-123z" />
    <glyph glyph-name="periodcentered" unicode="&#xb7;" horiz-adv-x="239" 
d="M202 360q0 -17 -7 -30t-19 -22.5t-26.5 -14.5t-29.5 -5t-30 5t-27 14.5t-19 22.5t-7 30q0 16 7 29.5t19 23t27 14.5t30 5t29.5 -5t26.5 -14.5t19 -23t7 -29.5z" />
    <glyph glyph-name="quotesinglbase" unicode="&#x201a;" horiz-adv-x="250" 
d="M89 -166l-89 52l161 278l89 -51z" />
    <glyph glyph-name="quotedblbase" unicode="&#x201e;" horiz-adv-x="425" 
d="M89 -166l-89 52l161 278l89 -51zM264 -166l-89 52l161 278l89 -51z" />
    <glyph glyph-name="perthousand" unicode="&#x2030;" 
d="M530 537q0 -97 -42 -153t-123 -72v-312h-145v312q-166 32 -166 225v183h145v-166q0 -25 3.5 -49.5t13.5 -44t28.5 -31.5t47.5 -12q30 0 48 12t28 31.5t13.5 44t3.5 49.5v166h145v-183v0zM278 773h-91l111 147h142z" />
    <glyph glyph-name="Acircumflex" unicode="&#xc2;" 
d="M367 766l-74 94l-72 -94h-100l118 146h108l120 -146h-100zM385 486q0 25 -3.5 49.5t-13.5 44t-28.5 31.5t-47.5 12q-30 0 -48 -12t-28 -31.5t-13.5 -44t-3.5 -49.5v-69h186v69zM385 0v303h-186v-303h-145v503q0 118 61 176t177 58q119 0 178.5 -59.5t59.5 -174.5v-503
h-145z" />
    <glyph glyph-name="Ecircumflex" unicode="&#xca;" 
d="M368 766l-74 94l-72 -94h-100l118 146h108l120 -146h-100zM54 0v720h477v-122h-332v-181h300v-114h-300v-181h340v-122h-485z" />
    <glyph glyph-name="Aacute" unicode="&#xc1;" 
d="M259 764h-90l111 148h142zM385 486q0 25 -3.5 49.5t-13.5 44t-28.5 31.5t-47.5 12q-30 0 -48 -12t-28 -31.5t-13.5 -44t-3.5 -49.5v-69h186v69zM385 0v303h-186v-303h-145v503q0 118 61 176t177 58q119 0 178.5 -59.5t59.5 -174.5v-503h-145z" />
    <glyph glyph-name="Edieresis" unicode="&#xcb;" 
d="M485 825q0 -17 -7 -30t-19 -22.5t-26.5 -14.5t-29.5 -5t-30 5t-27 14.5t-19 22.5t-7 30q0 16 7 29.5t19 23t27 14.5t30 5t29.5 -5t26.5 -14.5t19 -23t7 -29.5zM263 825q0 -17 -7 -30t-19 -22.5t-27 -14.5t-30 -5t-29.5 5t-26.5 14.5t-19 22.5t-7 30q0 16 7 29.5t19 23
t26.5 14.5t29.5 5t30 -5t27 -14.5t19 -23t7 -29.5zM54 0v720h477v-122h-332v-181h300v-114h-300v-181h340v-122h-485z" />
    <glyph glyph-name="Egrave" unicode="&#xc8;" 
d="M154 912h141l109 -148h-91zM54 0v720h477v-122h-332v-181h300v-114h-300v-181h340v-122h-485z" />
    <glyph glyph-name="Iacute" unicode="&#xcd;" horiz-adv-x="253" 
d="M98 764h-91l111 148h142zM54 0v720h145v-720h-145z" />
    <glyph glyph-name="Icircumflex" unicode="&#xce;" horiz-adv-x="253" 
d="M202 766l-74 94l-72 -94h-100l118 146h108l119 -146h-99zM54 0v720h145v-720h-145z" />
    <glyph glyph-name="Idieresis" unicode="&#xcf;" horiz-adv-x="253" 
d="M325 825q0 -17 -7 -30t-19 -22.5t-26.5 -14.5t-29.5 -5t-30 5t-27 14.5t-19 22.5t-7 30q0 16 7 29.5t19 23t27 14.5t30 5t29.5 -5t26.5 -14.5t19 -23t7 -29.5zM103 825q0 -17 -7 -30t-19 -22.5t-27 -14.5t-30 -5t-29.5 5t-26.5 14.5t-19 22.5t-7 30q0 16 7 29.5t19 23
t26.5 14.5t29.5 5t30 -5t27 -14.5t19 -23t7 -29.5zM54 0v720h145v-720h-145z" />
    <glyph glyph-name="Igrave" unicode="&#xcc;" horiz-adv-x="253" 
d="M-6 912h141l109 -148h-91zM54 0v720h145v-720h-145z" />
    <glyph glyph-name="Oacute" unicode="&#xd3;" horiz-adv-x="773" 
d="M365 764h-91l111 148h142zM591 360q0 48 -12 94t-36.5 82.5t-63 59t-92.5 22.5t-93 -22.5t-63.5 -59t-36.5 -82.5t-12 -94t12 -94t36.5 -82.5t63.5 -59t93 -22.5t92.5 22.5t63 59t36.5 82.5t12 94zM736 360q0 -78 -24 -147t-69 -120t-109.5 -80.5t-146.5 -29.5t-147 29.5
t-110 80.5t-69 120t-24 147t24 147t69 120t110 80.5t147 29.5t146.5 -29.5t109.5 -80.5t69 -120t24 -147z" />
    <glyph glyph-name="Ocircumflex" unicode="&#xd4;" horiz-adv-x="773" 
d="M458 766l-75 94l-72 -94h-99l118 146h108l119 -146h-99zM591 360q0 48 -12 94t-36.5 82.5t-63 59t-92.5 22.5t-93 -22.5t-63.5 -59t-36.5 -82.5t-12 -94t12 -94t36.5 -82.5t63.5 -59t93 -22.5t92.5 22.5t63 59t36.5 82.5t12 94zM736 360q0 -78 -24 -147t-69 -120
t-109.5 -80.5t-146.5 -29.5t-147 29.5t-110 80.5t-69 120t-24 147t24 147t69 120t110 80.5t147 29.5t146.5 -29.5t109.5 -80.5t69 -120t24 -147z" />
    <glyph glyph-name="apple" unicode="&#xf8ff;" 
d="M584 134q0 -25 -4 -49t-17.5 -43t-38.5 -30.5t-66 -11.5h-404v225l-54 -37v90l54 38v404h145v-304l170 118v-91l-170 -118v-203h219q43 0 56.5 15t13.5 46l96 -49v0z" />
    <glyph glyph-name="Ograve" unicode="&#xd2;" horiz-adv-x="773" 
d="M217 912h141l110 -148h-92zM591 360q0 48 -12 94t-36.5 82.5t-63 59t-92.5 22.5t-93 -22.5t-63.5 -59t-36.5 -82.5t-12 -94t12 -94t36.5 -82.5t63.5 -59t93 -22.5t92.5 22.5t63 59t36.5 82.5t12 94zM736 360q0 -78 -24 -147t-69 -120t-109.5 -80.5t-146.5 -29.5
t-147 29.5t-110 80.5t-69 120t-24 147t24 147t69 120t110 80.5t147 29.5t146.5 -29.5t109.5 -80.5t69 -120t24 -147z" />
    <glyph glyph-name="Uacute" unicode="&#xda;" 
d="M272 764h-91l111 148h142zM530 217q0 -118 -61 -176t-177 -58q-119 0 -178.5 59.5t-59.5 174.5v503h145v-486q0 -25 3.5 -49.5t13.5 -44t28.5 -31.5t47.5 -12q30 0 48 12t28 31.5t13.5 44t3.5 49.5v486h145v-503v0z" />
    <glyph glyph-name="Ucircumflex" unicode="&#xdb;" 
d="M363 766l-75 94l-72 -94h-99l118 146h108l119 -146h-99zM530 217q0 -118 -61 -176t-177 -58q-119 0 -178.5 59.5t-59.5 174.5v503h145v-486q0 -25 3.5 -49.5t13.5 -44t28.5 -31.5t47.5 -12q30 0 48 12t28 31.5t13.5 44t3.5 49.5v486h145v-503v0z" />
    <glyph glyph-name="Ugrave" unicode="&#xd9;" 
d="M162 912h141l109 -148h-91zM530 217q0 -118 -61 -176t-177 -58q-119 0 -178.5 59.5t-59.5 174.5v503h145v-486q0 -25 3.5 -49.5t13.5 -44t28.5 -31.5t47.5 -12q30 0 48 12t28 31.5t13.5 44t3.5 49.5v486h145v-503v0z" />
    <glyph glyph-name="dotlessi" unicode="&#x131;" horiz-adv-x="239" 
d="M54 0v517h131v-517h-131z" />
    <glyph glyph-name="circumflex" unicode="&#x2c6;" horiz-adv-x="0" 
d="M374 569l-74 94l-72 -94h-100l118 146h108l119 -146h-99z" />
    <glyph glyph-name="tilde" unicode="&#x2dc;" horiz-adv-x="0" 
d="M472 692q0 -23 -6.5 -44t-19 -37t-30.5 -25t-42 -9q-22 0 -41 7t-36.5 15.5t-34 15.5t-32.5 7q-19 0 -30.5 -16.5t-13.5 -32.5h-57q0 19 5.5 40t17 38.5t30 29t43.5 11.5q21 0 41.5 -7.5t39 -16l34.5 -16t27 -7.5q40 0 47 47h58v0z" />
    <glyph glyph-name="macron" unicode="&#xaf;" horiz-adv-x="0" 
d="M151 587v65h299v-65h-299z" />
    <glyph glyph-name="breve" unicode="&#x2d8;" horiz-adv-x="0" 
d="M460 713q-2 -34 -15.5 -59.5t-35.5 -42.5t-50 -25.5t-60 -8.5q-69 0 -111.5 35t-46.5 101h56q3 -18 13 -32t24.5 -23.5t32 -14t34.5 -4.5q36 0 66.5 17.5t36.5 56.5h56v0z" />
    <glyph glyph-name="dotaccent" unicode="&#x2d9;" horiz-adv-x="0" 
d="M383 628q0 -17 -7 -30t-19 -22.5t-26.5 -14.5t-29.5 -5t-30 5t-27 14.5t-19 22.5t-7 30q0 16 7 29.5t19 23t27 14.5t30 5t29.5 -5t26.5 -14.5t19 -23t7 -29.5z" />
    <glyph glyph-name="ring" unicode="&#x2da;" horiz-adv-x="0" 
d="M359 668q0 23 -17.5 40.5t-40.5 17.5t-41 -17t-18 -41q0 -23 18 -40.5t41 -17.5t40.5 17.5t17.5 40.5zM404 668q0 -21 -8 -39.5t-22 -33t-33 -22.5t-40 -8t-40 8t-33 22.5t-22.5 33t-8.5 39.5t8.5 40t22.5 33t33 22t40 8t39.5 -8t33 -22.5t22.5 -33t8 -39.5z" />
    <glyph glyph-name="cedilla" unicode="&#xb8;" horiz-adv-x="0" 
d="M419 -129q0 -25 -11 -41.5t-28 -26t-38 -13.5t-42 -4q-35 0 -61.5 7t-55.5 17l16 36l40 -12t41 -6q22 0 42 9t20 34q0 18 -16 27.5t-31 9.5q-26 0 -45 -12l-22 19l57 85h43l-41 -62q16 6 41 6q17 0 33.5 -4t29 -13t20.5 -23t8 -33z" />
    <glyph glyph-name="hungarumlaut" unicode="&#x2dd;" horiz-adv-x="0" 
d="M163 567h-75l112 148h116zM360 567h-75l112 148h116z" />
    <glyph glyph-name="ogonek" unicode="&#x2db;" horiz-adv-x="0" 
d="M406 -147q-16 -36 -45 -48.5t-61 -12.5q-43 0 -73.5 17.5t-30.5 52.5q0 20 11.5 39.5t28 37.5t36 33.5l34.5 27.5h57q-53 -44 -73.5 -73t-20.5 -54q0 -18 11.5 -29t31.5 -11q21 0 33 6.5t18 17.5l43 -5v1z" />
    <glyph glyph-name="caron" unicode="&#x2c7;" horiz-adv-x="0" 
d="M355 578h-108l-119 145h99l74 -94l73 94h99z" />
    <glyph glyph-name="NULL" horiz-adv-x="0" 
 />
    </font>
</defs>
</svg>
