<?xml version="1.0" standalone="no"?>
<!DOCTYPE svg PUBLIC "-//W3C//DTD SVG 1.1//EN" "http://www.w3.org/Graphics/SVG/1.1/DTD/svg11.dtd" >
<svg>
<metadata>
Created by FontForge 20090622 at Sat Feb  9 04:48:13 2013
 By ffonts
Copyright (c) 2012, Pablo Impallari (www.impallari.com|impallari@gmail.com),Copyright (c) 2012, Rodrigo Fuenzalida (www.rfuenzalida.com|hello@rfuenzalida.com),Copyright (c) 2012, Brenda Gallo (gbrenda1987@gmail.com), with Reserved Font Name Domine.
</metadata>
<defs>
<font id="Domine-Bold" horiz-adv-x="698" >
  <font-face 
    font-family="Domine"
    font-weight="700"
    font-stretch="normal"
    units-per-em="1000"
    panose-1="2 4 8 3 4 4 3 6 2 4"
    ascent="800"
    descent="-200"
    x-height="540"
    cap-height="720"
    bbox="-215 -240 1400 900"
    underline-thickness="50"
    underline-position="-50"
    unicode-range="U+0020-U+FB04"
  />
<missing-glyph horiz-adv-x="640" 
d="M65 900h510v-1140h-510v1140zM192 -155h256v970h-256v-970z" />
    <glyph glyph-name="f_f" unicode="ff" 
d="M14 526l97 14v10q0 102 53.5 156t151.5 54q48 0 88 -12t63 -32q49 74 143 74q73 0 116.5 -28.5t43.5 -72.5q0 -35 -19.5 -53.5t-47.5 -18.5q-31 0 -48.5 16t-17.5 42t16 44q-18 18 -46 18q-11 0 -23 -6.5t-17 -15.5q-8 -14 -11.5 -48.5t-3.5 -76.5v-50h128v-65h-128v-400
l108 -19v-56h-292v56l57 19v400h-187v-400l68 -19v-56h-272v56l77 19v400h-97v51zM425 563q0 77 -20 110.5t-76 33.5q-42 0 -66.5 -30t-24.5 -87v-50h187v23z" />
    <glyph glyph-name="f_i" unicode="fi" horiz-adv-x="648" 
d="M14 526l97 14v10q0 55 17 99.5t48 76t75.5 48t100.5 16.5q45 0 82.5 -8t63.5 -22.5t40.5 -35.5t14.5 -46q0 -71 -71 -71q-24 0 -43.5 15.5t-19.5 44.5q0 22 17 42q-17 14 -37.5 21t-48.5 7q-37 0 -65 -13q-25 -12 -36 -42t-11 -92v-50h314v-465l77 -19v-56h-271v56l67 19
v400h-187v-400l78 -19v-56h-282v56l77 19v400h-97v51z" />
    <glyph glyph-name="f_l" unicode="fl" horiz-adv-x="652" 
d="M338 790q45 0 80 -12.5t56 -37.5l18 40h60v-705l77 -19v-56h-271v56l67 19v400h-187v-400l78 -19v-56h-282v56l77 19v400h-97v51l97 14v10q0 55 15.5 99.5t45 76t71.5 48t95 16.5zM238 540h187v90q0 51 -25.5 79t-63.5 28q-46 0 -72 -40.5t-26 -121.5v-35z" />
    <glyph glyph-name="f_f_i" unicode="ffi" horiz-adv-x="961" 
d="M14 526l97 14v10q0 100 53.5 155t150.5 55q51 0 89 -14t66 -48q31 46 75 69t116 23q96 0 150.5 -30.5t54.5 -81.5q0 -35 -16 -53t-57 -18q-24 0 -42 15t-18 40q0 28 16 47q-16 13 -39 20.5t-49 7.5q-18 0 -34.5 -2.5t-32.5 -14.5q-11 -8 -19 -19.5t-13 -28.5t-7.5 -40.5
t-2.5 -56.5v-35h313v-465l77 -19v-56h-271v56l67 19v400h-186v-400l78 -19v-56h-272v56l67 19v400h-187v-400l78 -19v-56h-282v56l77 19v400h-97v51zM425 548q0 86 -22.5 122.5t-75.5 36.5q-42 0 -65.5 -33t-23.5 -99v-35h187v8z" />
    <glyph glyph-name="f_f_l" unicode="ffl" horiz-adv-x="965" 
d="M653 790q90 0 134 -50l18 40h60v-705l77 -19v-56h-271v56l67 19v400h-186v-400l78 -19v-56h-272v56l67 19v400h-187v-400l78 -19v-56h-282v56l77 19v400h-97v51l97 14v10q0 101 54.5 155.5t154.5 54.5q50 0 86 -15t64 -47q57 92 183 92zM552 540h186v90q0 51 -24.5 79
t-66.5 28q-51 0 -73 -40.5t-22 -121.5v-35zM238 540h187v8q0 85 -21 122t-75 37q-45 0 -68 -33.5t-23 -98.5v-35z" />
    <glyph glyph-name="f_b" unicode="fb" horiz-adv-x="965" 
d="M927 275q0 -65 -19 -123.5t-53 -96.5q-57 -65 -158 -65q-27 0 -50.5 5t-43.5 18t-37.5 34.5t-33.5 53.5l-30 -101h-77v475h-187v-400l78 -19v-56h-282v56l77 19v400h-97v51l97 14v10q0 111 56 175.5t176 64.5q89 0 131 -50l18 40h60v-298q30 38 67 53t85 15
q51 0 90.5 -15t67.5 -48q31 -37 48 -93.5t17 -118.5zM552 270q0 -59 9.5 -96.5t25.5 -63.5t37.5 -39.5t50.5 -13.5q52 0 82 47q17 26 26 66t9 94q0 56 -9.5 97.5t-24.5 68.5q-14 26 -35.5 39.5t-51.5 13.5q-25 0 -46.5 -10.5t-37.5 -35.5q-17 -26 -26 -68t-9 -99zM238 540
h187v90q0 51 -20 79t-63 28q-57 0 -80.5 -40.5t-23.5 -121.5v-35z" />
    <glyph glyph-name="f_f_b" unicode="ffb" horiz-adv-x="1279" 
d="M1241 275q0 -66 -19 -123.5t-53 -96.5q-56 -65 -161 -65q-51 0 -91 23.5t-71 87.5l-30 -101h-77v475h-187v-400l78 -19v-56h-282v56l77 19v400h-187v-400l78 -19v-56h-282v56l77 19v400h-97v51l97 14v10q0 101 62 155.5t177 54.5q48 0 76.5 -16t54.5 -42q36 50 87.5 69
t113.5 19q73 0 106 -50l18 40h60v-298q30 38 67 53t83 15q51 0 92.5 -15t67.5 -48q31 -38 48 -93t17 -119zM866 274q0 -112 35 -164q16 -25 33.5 -39t52.5 -14q32 0 51.5 13t33.5 34q16 26 25 67t9 96t-10 95t-25 68q-14 24 -32 38.5t-53 14.5q-32 0 -51.5 -11.5
t-33.5 -34.5q-16 -26 -25.5 -66.5t-9.5 -96.5zM552 540h187v90q0 51 -22 79t-64 28q-57 0 -79 -40.5t-22 -121.5v-35zM238 540h187v8q0 80 -18 119.5t-69 39.5q-54 0 -77 -33.5t-23 -98.5v-35z" />
    <glyph glyph-name="f_h" unicode="fh" horiz-adv-x="991" 
d="M771 268q0 32 -1 55.5t-2.5 41t-5 29.5t-7.5 21q-25 49 -87 49q-22 0 -43.5 -7t-36.5 -23q-21 -23 -28.5 -51t-7.5 -63v-245l67 -19v-56h-271v56l77 19v400h-187v-400l78 -19v-56h-282v56l77 19v400h-97v51l97 14v10q0 56 16 100.5t45 75.5t71 47.5t95 16.5q94 0 136 -50
l18 40h60v-334q26 51 71.5 77.5t94.5 26.5q50 0 86 -12.5t57 -41.5q20 -28 28.5 -78.5t8.5 -136.5v-206l77 -19v-56h-271v56l67 19v193zM238 540h187v95q0 48 -23 75t-66 27q-45 0 -71.5 -40.5t-26.5 -121.5v-35z" />
    <glyph glyph-name="f_f_h" unicode="ffh" horiz-adv-x="1304" 
d="M1084 268q0 32 -1 55.5t-3 41t-5 29.5t-7 21q-10 24 -28.5 35t-42.5 11q-50 0 -87 -33q-45 -39 -45 -112v-241l67 -19v-56h-271v56l77 19v400h-186v-400l78 -19v-56h-272v56l67 19v400h-187v-400l78 -19v-56h-282v56l77 19v400h-97v51l97 14v10q0 101 62 155.5t177 54.5
q50 0 86 -15t64 -47q57 92 183 92q69 0 104 -50l18 40h60v-334q30 49 79.5 76.5t106.5 27.5q40 0 72 -14t51 -40q20 -28 28.5 -78.5t8.5 -136.5v-206l77 -19v-56h-271v56l67 19v193zM552 540h186v90q0 51 -17.5 79t-53.5 28q-115 0 -115 -162v-35zM238 540h187v8
q0 85 -17.5 122t-64.5 37q-54 0 -79.5 -33.5t-25.5 -98.5v-35z" />
    <glyph glyph-name="f_j" unicode="fj" horiz-adv-x="626" 
d="M552 70q0 -74 -5 -116.5t-17 -69.5q-23 -43 -67 -66t-102 -23q-54 0 -88.5 26.5t-34.5 68.5q0 32 15.5 54.5t56.5 22.5q29 0 44.5 -15.5t15.5 -41.5q0 -14 -11 -27t-35 -21q2 -7 12.5 -11t26.5 -4q35 0 48.5 28t13.5 101v499h-187v-400l78 -19v-56h-282v56l77 19v400h-97
v51l97 14v10q0 55 17 99.5t48 76t75.5 48t100.5 16.5q45 0 82.5 -8.5t63.5 -24t40.5 -36.5t14.5 -46q0 -29 -14.5 -48.5t-52.5 -19.5q-25 0 -45.5 12.5t-20.5 37.5q0 13 3.5 26t12.5 26q-34 28 -88 28q-34 0 -62 -10q-25 -13 -36.5 -43.5t-11.5 -93.5v-50h314v-470z" />
    <glyph glyph-name="f_f_j" unicode="ffj" horiz-adv-x="939" 
d="M14 526l97 14v10q0 100 53.5 155t150.5 55q51 0 89 -14t66 -48q31 46 75 69t116 23q96 0 150.5 -30.5t54.5 -81.5q0 -35 -16.5 -52.5t-52.5 -17.5q-24 0 -44 12t-20 37q0 23 16 52q-16 13 -39 20.5t-49 7.5q-18 0 -36.5 -3t-32.5 -13q-20 -14 -30 -47t-10 -99v-35h313
v-470q0 -74 -4.5 -116.5t-16.5 -69.5q-23 -43 -67 -66t-102 -23q-54 0 -88.5 26.5t-34.5 68.5q0 33 18.5 53t53.5 20q26 0 43 -15t17 -41q0 -29 -46 -45q2 -7 12.5 -11t26.5 -4q31 0 46.5 28t15.5 101v499h-187v-400l78 -19v-56h-272v56l67 19v400h-187v-400l78 -19v-56
h-282v56l77 19v400h-97v51zM425 548q0 86 -21.5 122.5t-77.5 36.5q-41 0 -64.5 -33t-23.5 -99v-35h187v8z" />
    <glyph glyph-name="f_k" unicode="fk" horiz-adv-x="933" 
d="M741 75l-132 178l-57 -50v-128l77 -19v-56h-281v56l77 19v400h-187v-400l78 -19v-56h-282v56l77 19v400h-97v51l97 14v10q0 56 16 100.5t45 75.5t71 47.5t95 16.5q94 0 136 -50l18 40h60v-497l169 182l-66 19v56h245v-56l-73 -19l-137 -140l188 -252l53 -17v-56h-249v56z
M238 540h187v95q0 48 -22 75t-71 27q-44 0 -69 -40.5t-25 -121.5v-35z" />
    <glyph glyph-name="f_f_k" unicode="ffk" horiz-adv-x="1246" 
d="M1054 75l-131 177l-58 -49v-128l77 -19v-56h-281v56l77 19v400h-186v-400l78 -19v-56h-272v56l67 19v400h-187v-400l78 -19v-56h-282v56l77 19v400h-97v51l97 14v10q0 101 54.5 155.5t154.5 54.5q50 0 86 -15t64 -47q57 92 183 92q90 0 134 -50l18 40h60v-497l169 182
l-66 19v56h245v-56l-73 -19l-137 -140l188 -252l53 -17v-56h-249v56zM552 540h186v95q0 48 -25 75t-63 27q-98 0 -98 -162v-35zM238 540h187v8q0 85 -23.5 122t-69.5 37t-70 -33.5t-24 -98.5v-35z" />
    <glyph glyph-name=".notdef" horiz-adv-x="640" 
d="M65 900h510v-1140h-510v1140zM192 -155h256v970h-256v-970z" />
    <glyph glyph-name="NULL" horiz-adv-x="0" 
 />
    <glyph glyph-name="nonmarkingreturn" horiz-adv-x="270" 
 />
    <glyph glyph-name="space" unicode=" " horiz-adv-x="236" 
 />
    <glyph glyph-name="c" unicode="c" horiz-adv-x="546" 
d="M300 550q46 0 85 -11t67.5 -31.5t44.5 -49.5t16 -64q0 -45 -24 -68.5t-59 -23.5q-20 0 -33 6.5t-21.5 17t-12 23.5t-3.5 26q0 25 12.5 43t37.5 26q-14 18 -42 29t-63 11q-32 0 -56.5 -11t-41.5 -35.5t-26 -65t-9 -99.5q0 -54 7 -85t19 -54q16 -29 41 -45.5t64 -16.5
q20 0 42.5 5t44 14.5t41 24.5t34.5 36l54 -42q-47 -65 -108.5 -92.5t-131.5 -27.5q-75 0 -126 28.5t-80 83.5q-17 32 -26.5 73.5t-9.5 89.5q0 65 18 117.5t51.5 90t82.5 57.5t111 20z" />
    <glyph glyph-name="d" unicode="d" horiz-adv-x="636" 
d="M38 269q0 66 18 123.5t50 92.5q59 65 159 65q47 0 83 -17t65 -61v233l-77 19v56h204v-705l77 -19v-56l-185 -10l-8 82q-31 -47 -70 -64.5t-91 -17.5q-55 0 -92.5 16.5t-63.5 46.5q-31 35 -50 91t-19 125zM413 266q0 58 -10 100.5t-24 65.5q-31 50 -92 50q-24 0 -49 -10
t-39 -36q-13 -24 -19.5 -65.5t-6.5 -92.5q0 -58 8 -101t20 -66q14 -26 38 -40t53 -14q23 0 47 10.5t40 35.5q16 26 25 68t9 95z" />
    <glyph glyph-name="e" unicode="e" horiz-adv-x="556" 
d="M169 256q0 -68 20 -113q32 -71 110 -71q45 0 88 19.5t74 60.5l54 -42q-35 -50 -94.5 -85t-146.5 -35q-74 0 -126.5 29.5t-80.5 86.5q-15 31 -22 68.5t-7 82.5q0 140 64 216.5t183 76.5q54 0 98 -16.5t74.5 -47t47 -75t16.5 -100.5q0 -11 -0.5 -21.5t-2.5 -33.5h-349z
M283 481q-103 0 -113 -161h220v26q0 65 -28 100t-79 35z" />
    <glyph glyph-name="f" unicode="f" horiz-adv-x="389" 
d="M17 524l97 14v27q0 108 58 166.5t157 58.5q60 0 95 -28.5t35 -72.5q0 -32 -16.5 -49.5t-45.5 -17.5q-32 0 -49.5 15.5t-17.5 44.5q0 21 16 37q-11 18 -30 18t-32 -8q-16 -11 -25 -26t-13 -33t-4.5 -38.5t-0.5 -41.5v-50h128v-80h-128v-385l108 -19v-56h-312v56l77 19v385
h-97v64z" />
    <glyph glyph-name="h" unicode="h" horiz-adv-x="658" 
d="M442 268q0 32 -1 55.5t-2.5 41t-5 29.5t-7.5 21q-25 49 -88 49q-28 0 -54 -14t-41 -40q-8 -14 -14 -37t-6 -57v-241l67 -19v-56h-271v56l77 19v630l-77 19v56h204v-334q26 48 68.5 76t93.5 28q43 0 72.5 -10.5t51.5 -33.5q31 -32 45.5 -85.5t14.5 -139.5v-206l77 -19v-56
h-271v56l67 19v193z" />
    <glyph glyph-name="i" unicode="i" horiz-adv-x="331" 
d="M31 484v56h204v-465l77 -19v-56h-281v56l77 19v390zM97 692q0 32 19.5 52t54.5 20t55 -20t20 -52t-19.5 -51.5t-55.5 -19.5t-55 19.5t-19 51.5z" />
    <glyph glyph-name="j" unicode="j" horiz-adv-x="300" 
d="M225 85q0 -74 -4.5 -116.5t-17.5 -69.5q-23 -48 -59 -68.5t-90 -20.5q-64 0 -103.5 24t-39.5 71q0 29 18 50.5t52 21.5q29 0 46.5 -18t17.5 -44q0 -11 -4.5 -21.5t-13.5 -16.5q2 -11 12.5 -13t14.5 -2q22 0 33 28t11 101v474l-77 19v56h204v-455zM90 692q0 32 19.5 52
t54.5 20t55 -20t20 -52t-19.5 -51.5t-55.5 -19.5t-55 19.5t-19 51.5z" />
    <glyph glyph-name="k" unicode="k" horiz-adv-x="609" 
d="M411 75l-132 176l-56 -47v-129l77 -19v-56h-281v56l77 19v630l-77 19v56h204v-498l170 184l-52 18v56h245v-56l-88 -19l-137 -140l187 -252l53 -17v-56h-249v56z" />
    <glyph glyph-name="l" unicode="l" horiz-adv-x="326" 
d="M99 704l-77 19v57h204v-704l77 -19v-57h-281v57l77 19v628z" />
    <glyph glyph-name="m" unicode="m" horiz-adv-x="995" 
d="M108 465l-77 19v56h174l22 -100h4q29 51 77.5 80.5t103.5 29.5q42 0 73.5 -15.5t46.5 -38.5q16 -25 26 -66q32 57 83 88.5t109 31.5q40 0 72 -15.5t49 -42.5q9 -14 15 -34t10 -49.5t5.5 -69.5t1.5 -94v-170l77 -19v-56h-271v56l67 19v193q0 32 -1 55.5t-3 41t-5 29.5
t-7 21q-10 24 -26.5 33.5t-34.5 9.5q-26 0 -46 -7t-39 -24q-22 -20 -32.5 -46.5t-12.5 -68.5v-237l67 -19v-56h-261v56l67 19v193q0 32 -1 55.5t-3 41t-5 29.5t-7 21q-10 24 -26.5 33.5t-34.5 9.5q-26 0 -46 -7t-39 -24q-22 -20 -32.5 -46.5t-12.5 -68.5v-237l67 -19v-56
h-271v56l77 19v390z" />
    <glyph glyph-name="n" unicode="n" horiz-adv-x="674" 
d="M108 465l-77 19v56h174l22 -100h4q30 51 80.5 80.5t109.5 29.5q40 0 72 -14t51 -40q20 -28 28.5 -78.5t8.5 -136.5v-206l77 -19v-56h-271v56l67 19v193q0 60 -3.5 93.5t-12.5 53.5q-11 26 -30 36t-45 10q-49 0 -83 -32q-41 -38 -45 -117v-237l67 -19v-56h-271v56l77 19
v390z" />
    <glyph glyph-name="o" unicode="o" horiz-adv-x="594" 
d="M557 270q0 -64 -18.5 -120.5t-53.5 -94.5q-33 -35 -79 -50t-109 -15t-109 15t-79 50q-35 38 -53.5 94.5t-18.5 120.5t18.5 120.5t53.5 94.5q33 35 79 50t109 15t109 -15t79 -50q35 -38 53.5 -94.5t18.5 -120.5zM206 97q27 -40 91 -40t91 40q32 49 32 173t-32 173
q-27 40 -91 40t-91 -40q-32 -49 -32 -173t32 -173z" />
    <glyph glyph-name="oe" unicode="&#x153;" horiz-adv-x="933" 
d="M295 550q29 0 57.5 -6t53.5 -18t45 -31t32 -46h4q25 49 68.5 75t109.5 26q117 0 174.5 -63.5t57.5 -175.5q0 -10 -0.5 -22.5t-2.5 -32.5h-349q0 -38 5 -64t15 -49q15 -38 44 -54.5t63 -16.5q48 0 86.5 19.5t69.5 53.5l62 -39q-20 -24 -42.5 -45t-50 -37t-62 -25t-79.5 -9
q-27 0 -54 6t-49.5 18t-40 29.5t-25.5 41.5h-4q-26 -47 -81.5 -71t-119.5 -24q-55 0 -99.5 15.5t-74.5 47.5q-34 37 -52.5 91.5t-18.5 118.5q0 66 19 125t55 97q32 34 80 49.5t104 15.5zM174 274q0 -56 10.5 -96.5t25.5 -67.5q14 -25 37 -39t50 -14q54 0 88 47
q18 23 26.5 65.5t8.5 97.5t-9.5 96t-26.5 67q-17 25 -37.5 39t-50.5 14q-25 0 -49.5 -12t-36.5 -34q-16 -26 -26 -66.5t-10 -96.5zM660 481q-47 0 -78 -38.5t-36 -122.5h220v26q0 32 -8.5 57t-23.5 42.5t-34 26.5t-40 9z" />
    <glyph glyph-name="p" unicode="p" horiz-adv-x="635" 
d="M320 -124v-56h-301v56l77 19v570l-77 19v56h174l15 -77q32 50 72.5 68.5t91.5 18.5t92.5 -15t67.5 -48q30 -38 47.5 -91t17.5 -116q0 -64 -19.5 -120.5t-52.5 -94.5q-56 -65 -161 -65q-43 0 -77.5 16t-63.5 58v-179zM222 280q0 -55 9 -95t24 -65t38 -39t55 -14
q31 0 50.5 13t31.5 34q15 26 23.5 67t8.5 89q0 51 -9 95t-24 71q-15 26 -37 36t-50 10q-59 0 -88 -46q-14 -23 -23 -62t-9 -94z" />
    <glyph glyph-name="q" unicode="q" horiz-adv-x="615" 
d="M413 67q-29 -38 -65 -52.5t-81 -14.5q-51 0 -92 15t-68 48q-32 38 -50.5 91t-18.5 116q0 64 18 120.5t50 94.5q26 32 67 48.5t94 16.5t93.5 -24.5t72.5 -88.5l30 103h77v-645l77 -19v-56h-301v56l97 19v172zM413 271q0 109 -35 159q-32 52 -91 52q-24 0 -48.5 -10.5
t-39.5 -35.5q-16 -26 -21 -65t-5 -93q0 -105 26 -158q15 -31 38 -42t49 -11q35 0 56.5 11.5t35.5 34.5q16 26 25.5 65t9.5 93z" />
    <glyph glyph-name="r" unicode="r" horiz-adv-x="474" 
d="M330 467q-9 0 -19 -8t-19.5 -20t-17 -25.5t-11.5 -23.5q-12 -35 -21 -70.5t-9 -87.5v-157l108 -19v-56h-312v56l77 19v405l-77 19v41h174l22 -132h4q23 69 61.5 105.5t86.5 36.5q39 0 65 -24.5t26 -65.5q0 -30 -18 -54.5t-51 -24.5q-41 0 -57.5 18.5t-16.5 40.5
q0 7 1 11.5t4 15.5z" />
    <glyph glyph-name="s" unicode="s" horiz-adv-x="516" 
d="M243 51q25 0 47 5t38.5 14t26 22.5t9.5 30.5q0 20 -12.5 35t-33 26t-46 19.5l-50.5 16.5q-31 9 -60.5 22.5t-53 34t-37.5 48.5t-14 66q0 72 52 115.5t149 43.5q46 0 83 -10t63 -28.5t40.5 -44t14.5 -55.5q0 -35 -18.5 -53t-50.5 -18t-50 15.5t-18 36.5q0 17 10 32.5
t26 23.5q-14 19 -37.5 29.5t-58.5 10.5q-47 0 -70 -19.5t-23 -54.5q0 -40 26 -59.5t70 -32.5q40 -12 79 -25t69.5 -32t49 -46.5t18.5 -66.5t-18.5 -69.5t-51 -51t-76.5 -31.5t-95 -11q-96 0 -149.5 35t-53.5 95q0 41 23 64t55 23q24 0 44.5 -13.5t20.5 -38.5q0 -18 -11 -35
t-25 -25q10 -16 33 -30t66 -14z" />
    <glyph glyph-name="b" unicode="b" horiz-adv-x="615" 
d="M577 275q0 -66 -19 -123.5t-53 -96.5q-56 -65 -161 -65q-51 0 -91 23.5t-71 87.5l-30 -101h-77v705l-77 19v56h204v-298q30 38 67 53t83 15q51 0 92.5 -15t67.5 -48q31 -38 48 -93t17 -119zM202 270q0 -60 10 -98t25 -62q16 -25 38 -39t54 -14t50.5 13.5t31.5 34.5
q15 26 23 62.5t8 88.5q0 57 -8.5 101.5t-21.5 72.5q-12 26 -32 39.5t-52 13.5q-27 0 -51.5 -10t-39.5 -36t-25 -66.5t-10 -100.5z" />
    <glyph glyph-name="t" unicode="t" horiz-adv-x="365" 
d="M5 526l98 14l12 124l114 16v-140h128v-65h-128v-327q0 -34 1 -46.5t4 -20.5q3 -6 11 -9t26 -3h70v-44q-58 -18 -102.5 -26.5t-70.5 -8.5q-45 0 -58 37q-5 12 -6.5 30.5t-1.5 56.5v361h-97v51z" />
    <glyph glyph-name="u" unicode="u" horiz-adv-x="652" 
d="M218 272q0 -32 0.5 -55.5t2 -41t4 -29.5t5.5 -21q8 -24 26.5 -36.5t37.5 -12.5q27 0 49 10t41 27q22 20 32.5 46.5t12.5 68.5v237l-87 19v56h214v-465l77 -19v-56l-185 -10l-11 110h-4q-29 -51 -79 -80.5t-107 -29.5q-38 0 -69.5 14t-49.5 40q-20 28 -28.5 78.5
t-8.5 136.5v206l-67 19v56h194v-268z" />
    <glyph glyph-name="v" unicode="v" horiz-adv-x="604" 
d="M235 -10l-173 476l-56 19v56h254v-56l-66 -19l120 -367h4l123 366l-62 19v56h220v-56l-58 -19l-173 -475h-133z" />
    <glyph glyph-name="w" unicode="w" horiz-adv-x="888" 
d="M278 150l10 -59h5l11 59l104 400h102l107 -399l10 -59h4l12 59l81 313l-65 19v56h220v-56l-54 -19l-144 -474h-133l-104 361l-101 -361h-133l-149 474l-53 19v56h254v-56l-69 -19z" />
    <glyph glyph-name="x" unicode="x" horiz-adv-x="574" 
d="M303 341l91 124l-60 19v56h218v-56l-57 -19l-150 -178l165 -213l55 -18v-56h-249v56l57 19l-102 131l-97 -131l60 -19v-56h-218v56l56 19l158 185l-159 205l-56 19v56h237v-56l-44 -19z" />
    <glyph glyph-name="y" unicode="y" horiz-adv-x="600" 
d="M368 24q-25 -58 -45.5 -99t-43 -66.5t-49.5 -37t-66 -11.5q-24 0 -44.5 6.5t-36 18.5t-24.5 28t-9 35q0 35 20.5 57.5t53.5 22.5q29 0 44.5 -13t15.5 -39q0 -5 -2.5 -12.5t-8 -15t-14.5 -12.5t-21 -5q2 -10 11.5 -13.5t17.5 -3.5q10 0 19.5 2.5t19 12t20 28t22.5 49.5
l12 37l-201 472l-60 19v56h254l8 -56l-71 -19l123 -347h4l111 347l-58 19v56h220v-56l-61 -19z" />
    <glyph glyph-name="z" unicode="z" horiz-adv-x="558" 
d="M425 207h87v-207h-473v71l313 398h-189l-24 -131h-87v202h456v-71l-312 -398h209z" />
    <glyph glyph-name="g" unicode="g" horiz-adv-x="575" 
d="M528 -6q0 -92 -66 -135t-210 -43q-48 0 -90 6.5t-73.5 21.5t-49.5 39t-18 59q0 46 29 74t86 30v4q-76 21 -76 76q0 15 5.5 31.5t18 31t32 25.5t47.5 15q-54 13 -83.5 53.5t-29.5 95.5q0 80 53.5 126t155.5 46q33 0 58.5 -3t46 -9t36.5 -14.5t31 -19.5l34 12l92 44h17
v-103h-17l-70 8h-25q20 -31 20 -81q0 -82 -50.5 -129.5t-147.5 -47.5q-11 0 -20.5 0.5t-19.5 1.5q-39 -5 -62.5 -17.5t-23.5 -35.5q0 -18 18.5 -24.5t69.5 -6.5h116q166 0 166 -131zM253 33q-67 0 -97 -21t-30 -55q0 -76 143 -76q77 0 117 22t40 66q0 35 -31 49.5t-107 14.5
h-35zM168 382q0 -57 24 -86t69 -29q54 0 78.5 29t24.5 86q0 53 -24.5 80t-78.5 27q-45 0 -69 -27t-24 -80z" />
    <glyph glyph-name="I" unicode="I" horiz-adv-x="390" 
d="M260 79l94 -21v-58h-318v58l94 21v562l-94 21v58h318v-58l-94 -21v-562z" />
    <glyph glyph-name="H" unicode="H" horiz-adv-x="819" 
d="M694 79l84 -21v-58h-298v58l84 21v254h-309v-254l84 -21v-58h-298v58l84 21v562l-84 21v58h298v-58l-84 -21v-235h309v235l-84 21v58h298v-58l-84 -21v-562z" />
    <glyph glyph-name="O" unicode="O" horiz-adv-x="774" 
d="M731 368q0 -84 -24 -160.5t-76 -130.5q-43 -45 -102.5 -66t-144.5 -21t-144.5 21t-100.5 63q-44 45 -70 117.5t-26 160.5t26 164t74 127q42 45 100.5 66t143.5 21q81 0 141.5 -19.5t105.5 -64.5q52 -52 74.5 -125.5t22.5 -152.5zM188 371q0 -78 14.5 -138t39.5 -98
q24 -37 59.5 -56t88.5 -19q94 0 142 66q26 35 40 91.5t14 136.5q0 79 -14.5 137t-40.5 96t-63.5 56t-84.5 18q-48 0 -82 -17.5t-57 -48.5q-56 -74 -56 -224z" />
    <glyph glyph-name="D" unicode="D" horiz-adv-x="779" 
d="M380 75q54 0 92 16.5t64 49.5q27 34 41 86.5t14 126.5q0 142 -55 217q-27 37 -67.5 55.5t-98.5 18.5h-115v-570h125zM407 720q149 0 232 -84q47 -48 72 -118t25 -150q0 -85 -26 -158t-74 -123q-42 -45 -100 -66t-138 -21h-357v58l84 21v562l-84 21v58h366z" />
    <glyph glyph-name="E" unicode="E" 
d="M414 238l-17 94h-137v-257h275l28 148h88v-223h-615v58l94 21v562l-94 21v58h593v-212h-82l-29 139h-258v-240h137l17 95h81v-264h-81z" />
    <glyph glyph-name="P" unicode="P" horiz-adv-x="645" 
d="M349 348q28 0 52.5 8.5t38.5 22.5q20 20 34 48.5t14 65.5q0 33 -13.5 64.5t-34.5 53.5q-17 17 -41.5 26.5t-53.5 9.5h-90v-299h94zM255 275v-196l95 -21v-58h-309v58l84 21v562l-84 21v58h361q47 0 85.5 -12.5t64.5 -35.5q35 -32 55.5 -75t20.5 -91q0 -50 -21.5 -100
t-56.5 -81q-26 -27 -65 -38.5t-84 -11.5h-146z" />
    <glyph glyph-name="T" unicode="T" horiz-adv-x="674" 
d="M650 720v-225h-64l-32 150h-152v-563l106 -24v-58h-342v58l106 24v563h-153l-31 -150h-64v225h626z" />
    <glyph glyph-name="R" unicode="R" horiz-adv-x="717" 
d="M566 382q-18 -14 -40.5 -27t-57.5 -21q5 -5 15.5 -17.5t21.5 -29.5l124 -210l89 -19v-58h-236v58l-131 257h-96v-236l95 -21v-58h-309v58l84 21v562l-84 21v58h374q48 0 84 -9t65 -29q36 -26 57 -67t21 -83t-20.5 -82.5t-55.5 -67.5zM368 388q55 0 91 31q20 17 31.5 45.5
t11.5 61.5q0 30 -12 54t-32 41q-33 26 -94 26h-109v-259h113z" />
    <glyph glyph-name="F" unicode="F" horiz-adv-x="650" 
d="M415 227l-17 94h-137v-239l117 -19v-63h-341v58l94 24v559l-94 21v58h593v-214h-84l-32 141h-253v-251h137l17 95h81v-264h-81z" />
    <glyph glyph-name="L" unicode="L" horiz-adv-x="645" 
d="M260 75h242l34 173h85v-248h-585v58l94 21v562l-94 21v58h328v-58l-104 -21v-566z" />
    <glyph glyph-name="Q" unicode="Q" horiz-adv-x="774" 
d="M731 368q0 -88 -26 -164t-74 -127q-38 -40 -87 -60.5t-111 -25.5v-4l97 -66q18 -12 39 -18t42 -6q19 0 31 6t29 23l22 -40q-21 -38 -56 -54.5t-83 -16.5q-56 0 -98 19t-65 57l-60 101q-122 9 -192 82q-46 48 -71 120.5t-25 157.5q0 88 26 164t74 127q45 46 103.5 66.5
t140.5 20.5q81 0 142 -20t105 -64q48 -48 72.5 -120.5t24.5 -157.5zM188 374q0 -80 14 -141.5t40 -98.5q44 -74 147 -74q97 0 142 66q55 70 55 228q0 78 -14 137t-41 96q-47 74 -147 74q-95 0 -141 -66q-55 -67 -55 -221z" />
    <glyph glyph-name="C" unicode="C" 
d="M377 661q-38 0 -72.5 -16t-55.5 -46q-27 -39 -45.5 -97t-18.5 -130t15 -133.5t42 -103.5q22 -35 59 -50.5t85 -15.5q168 0 197 169h85q-25 -126 -99.5 -187t-204.5 -61q-138 0 -220 80q-49 48 -75 120.5t-26 162.5q0 101 33 182.5t93 131.5q76 63 201 63q31 0 55.5 -3.5
t45.5 -12t39.5 -22.5t37.5 -35l20 63h85v-236h-91q-14 88 -62.5 132.5t-122.5 44.5z" />
    <glyph glyph-name="G" unicode="G" horiz-adv-x="765" 
d="M378 70q85 0 121 42t36 126v40l-84 21v60h298v-60l-84 -21v-278h-82l-25 79q-44 -48 -90 -68.5t-109 -20.5q-137 0 -219 84q-47 48 -72 119t-25 159q0 89 26.5 165t74.5 127q41 43 96.5 64.5t132.5 21.5q30 0 54 -4t44.5 -12.5t39 -22t37.5 -33.5l20 62h85v-236h-91
q-14 81 -59 129t-126 48q-45 0 -75 -15t-52 -43q-28 -42 -47 -103.5t-19 -133.5q0 -71 17.5 -135.5t49.5 -108.5q20 -27 53.5 -39.5t73.5 -12.5z" />
    <glyph glyph-name="B" unicode="B" horiz-adv-x="697" 
d="M624 547q0 -29 -10 -55t-28 -46.5t-42.5 -34t-53.5 -17.5v-4q78 -17 123 -66.5t45 -122.5q0 -57 -29.5 -104t-74.5 -70q-14 -7 -30.5 -12t-38.5 -8.5t-50 -5t-65 -1.5h-329v58l84 21v562l-84 21v58h366q105 0 162 -51q26 -24 40.5 -56t14.5 -66zM255 339v-264h80
q46 0 74 5t47 16q27 14 44 44.5t17 70.5q0 35 -13 59t-33 40q-18 14 -46 21.5t-72 7.5h-98zM255 412h95q70 0 103 35q15 14 26 35.5t11 49.5t-11 49.5t-26 35.5q-30 30 -99 30h-99v-235z" />
    <glyph glyph-name="Z" unicode="Z" horiz-adv-x="659" 
d="M534 238h87v-238h-593v61l415 584h-270l-32 -152h-82v227h539v-61l-415 -584h319z" />
    <glyph glyph-name="J" unicode="J" horiz-adv-x="597" 
d="M355 641l-99 21v58h308v-58l-79 -21v-423q0 -52 -17 -94t-48 -72t-74.5 -46.5t-96.5 -16.5q-54 0 -98 13t-76 37t-49.5 57t-17.5 74q0 46 20 75t60 29q35 0 57 -20t22 -53q0 -23 -13 -46.5t-30 -31.5q5 -26 33.5 -43.5t82.5 -17.5q55 0 85 36t30 109v434z" />
    <glyph glyph-name="U" unicode="U" horiz-adv-x="784" 
d="M584 641l-84 21v58h261v-58l-84 -21v-398q0 -125 -74 -189.5t-219 -64.5q-134 0 -205 66t-71 189v397l-84 21v58h298v-58l-84 -21v-365q0 -217 168 -217q94 0 136 50.5t42 164.5v367z" />
    <glyph glyph-name="N" unicode="N" horiz-adv-x="817" 
d="M125 641l-84 21v58h231l334 -528v449l-84 21v58h263v-58l-84 -21v-641h-111l-370 574v-495l84 -21v-58h-263v58l84 21v562z" />
    <glyph glyph-name="A" unicode="A" horiz-adv-x="728" 
d="M464 234h-244l-52 -155l83 -21v-58h-264v58l82 21l234 651h123l232 -651l80 -21v-58h-305v58l82 21zM245 307h195l-93 291h-4z" />
    <glyph glyph-name="V" unicode="V" horiz-adv-x="724" 
d="M377 118h4l170 523l-83 21v58h264v-58l-82 -21l-219 -641h-128l-238 641l-80 21v58h300v-58l-82 -21z" />
    <glyph glyph-name="W" unicode="W" horiz-adv-x="1051" 
d="M878 642l-79 20v58h259v-58l-83 -21l-185 -641h-134l-131 431l-119 -431h-134l-205 641l-78 21v58h314v-58l-96 -21l142 -513h4l126 468l-9 45l-78 21v58h294v-58l-92 -21l139 -514h4z" />
    <glyph glyph-name="K" unicode="K" horiz-adv-x="747" 
d="M260 397l235 244l-91 21v58h293v-58l-88 -21l-219 -217l287 -347l84 -19v-58h-309v58l66 20l-212 262l-46 -44v-217l84 -21v-58h-308v58l94 21v562l-94 21v58h308v-58l-84 -21v-244z" />
    <glyph glyph-name="Y" unicode="Y" horiz-adv-x="682" 
d="M512 641l-81 21v58h257v-58l-82 -21l-196 -359v-203l94 -21v-58h-318v58l94 21v187l-207 375l-83 21v58h306v-58l-84 -21l148 -278z" />
    <glyph glyph-name="S" unicode="S" horiz-adv-x="613" 
d="M322 -11q-57 0 -96.5 16.5t-70.5 52.5l-11 -58h-86v242h91q3 -50 15.5 -85t33.5 -57t49.5 -31.5t64.5 -9.5q57 0 91 23.5t34 74.5q0 31 -13 53t-37 39.5t-57 32.5l-73 32q-47 19 -83.5 38.5t-61.5 44t-38 56t-13 75.5q0 97 59.5 150t159.5 53q99 0 161 -56l8 45h86v-242
h-87q0 94 -35 139t-108 45q-113 0 -113 -107q0 -26 7.5 -44t25 -32.5t46 -28.5l70.5 -33q63 -29 106.5 -54t70 -51t38.5 -55t12 -66q0 -50 -19 -88t-52.5 -63.5t-78.5 -38t-96 -12.5z" />
    <glyph glyph-name="X" unicode="X" horiz-adv-x="742" 
d="M262 641l117 -189l143 189l-91 21v58h293v-58l-98 -21l-196 -255l205 -307l106 -21v-58h-357l-2 58l103 21l-134 214l-150 -214l109 -21v-58h-302v58l93 21l200 279l-186 283l-106 21v58h347v-58z" />
    <glyph glyph-name="M" unicode="M" horiz-adv-x="977" 
d="M672 720h264v-58l-84 -21v-562l84 -21v-58h-287v58l73 21v561l-182 -640h-142l-178 640v-561l73 -21v-58h-252v58l84 21v562l-84 21v58h268l173 -614h4z" />
    <glyph glyph-name="zero" unicode="0" horiz-adv-x="684" 
d="M47 360q0 97 21 170t62 122q36 44 88.5 61t123.5 17q39 0 69.5 -4t55 -13t45.5 -24t42 -37q41 -49 62 -122t21 -170t-21.5 -170t-61.5 -122q-21 -22 -42 -37t-45.5 -24t-55 -13t-69.5 -4q-71 0 -123.5 17t-88.5 61q-41 49 -62 122t-21 170zM495 360q0 164 -45 238
q-10 16 -20 27.5t-22 19.5t-28 12t-38 4q-34 0 -64 -15.5t-44 -47.5q-45 -74 -45 -238q0 -82 11 -141.5t34 -96.5q14 -32 43 -47.5t65 -15.5q22 0 38 4t28 12t22 19.5t20 27.5q45 73 45 238z" />
    <glyph glyph-name="one" unicode="1" horiz-adv-x="416" 
d="M165 618h-127v66q18 0 41.5 3t46 9t41 14.5t27.5 19.5h98v-655l107 -19v-56h-361v56l127 19v543z" />
    <glyph glyph-name="two" unicode="2" horiz-adv-x="600" 
d="M437 110l24 128h85v-238h-505v66q0 52 27 95.5t67.5 82.5t88 75t88 72.5t67.5 76.5t27 86q0 51 -34.5 79.5t-96.5 28.5q-56 0 -86 -24t-39 -73q32 0 49 -16.5t17 -43.5q0 -29 -20 -45t-53 -16q-18 0 -34 5.5t-28.5 17.5t-19.5 31t-7 47q0 40 16 74.5t46.5 59t74 38.5
t98.5 14q54 0 99.5 -14t78.5 -39.5t51.5 -61.5t18.5 -81q0 -58 -28.5 -105t-71.5 -86t-92.5 -71l-92.5 -60t-71.5 -53t-28.5 -50h285z" />
    <glyph glyph-name="four" unicode="4" horiz-adv-x="573" 
d="M312 198h-288l-15 59l321 473h109v-460h109l-10 -72h-99v-123l77 -19v-56h-301v56l97 19v123zM108 270h204v318z" />
    <glyph glyph-name="three" unicode="3" horiz-adv-x="590" 
d="M531 541q0 -31 -9.5 -58.5t-28 -49t-45 -36.5t-59.5 -21v-4q81 -17 117 -63t36 -109q0 -51 -21 -90t-57.5 -65.5t-84.5 -40.5t-102 -14q-56 0 -99.5 14t-73.5 38.5t-45.5 58.5t-15.5 74q0 46 21.5 74.5t66.5 28.5q36 0 55 -18t19 -44t-18 -43t-48 -17q8 -48 38.5 -72.5
t87.5 -24.5q65 0 102 32t37 95q0 72 -48.5 113.5t-133.5 41.5v63q40 0 73.5 10.5t56.5 30t36 47t13 60.5q0 56 -34.5 83t-93.5 27q-107 0 -120 -87q31 0 48.5 -16t17.5 -42q0 -25 -17 -43.5t-55 -18.5q-48 0 -72 29.5t-24 74.5q0 38 16.5 69.5t47 54.5t73 35.5t95.5 12.5
q54 0 99.5 -13.5t78.5 -38.5t51.5 -60t18.5 -78z" />
    <glyph glyph-name="eight" unicode="8" horiz-adv-x="581" 
d="M506 569q0 -54 -28.5 -101.5t-80.5 -78.5q75 -41 108.5 -86t33.5 -106q0 -48 -19 -86t-53.5 -65t-83 -41.5t-107.5 -14.5q-111 0 -172 49.5t-61 139.5q0 63 32.5 111t102.5 88q-56 40 -79 78t-23 91q0 86 54.5 135t161.5 49q48 0 87.5 -10.5t67.5 -31t43.5 -51
t15.5 -69.5zM247 335q-51 -28 -77.5 -63.5t-26.5 -88.5q0 -63 36.5 -93.5t97.5 -30.5t97.5 29t36.5 80q0 22 -8 40t-27 37t-50.5 40zM345 427q30 21 50.5 58.5t20.5 77.5q0 49 -31.5 74t-83.5 25q-50 0 -80 -22.5t-30 -65.5q0 -19 7 -37.5t25 -36.5t47.5 -36t74.5 -37z" />
    <glyph glyph-name="nine" unicode="9" horiz-adv-x="611" 
d="M434 370q-28 -37 -75 -58t-102 -21q-48 0 -87 16t-67 44.5t-43.5 69t-15.5 90.5q0 51 17.5 91.5t49 69t76.5 44t100 15.5q142 0 209 -86t67 -264q0 -192 -71 -291.5t-216 -99.5q-46 0 -84 12t-65 34.5t-42 53t-15 68.5q0 39 20 64.5t61 25.5t61 -19t20 -48
q0 -28 -18 -44.5t-48 -16.5q6 -28 33.5 -44t67.5 -16q91 0 132 62.5t41 200.5v24t-2 23h-4zM181 511q0 -148 118 -148q55 0 86.5 37t31.5 111q0 75 -31.5 112.5t-86.5 37.5q-118 0 -118 -150z" />
    <glyph glyph-name="seven" unicode="7" horiz-adv-x="528" 
d="M284 59q0 -35 -14 -52t-57 -17q-35 0 -48.5 19t-13.5 51q0 52 18.5 123t51 147t75.5 149.5t92 130.5h-255l-19 -117h-82v227h489v-76q-50 -59 -93.5 -130t-75.5 -147.5t-50 -155t-18 -152.5z" />
    <glyph glyph-name="five" unicode="5" horiz-adv-x="566" 
d="M462 610h-272l-31 -203q29 22 63 33t78 11q52 0 94.5 -15.5t73 -45t47 -71t16.5 -92.5q0 -53 -17.5 -97t-51 -75t-81 -48t-107.5 -17q-55 0 -98 13t-73 35.5t-46 52t-16 62.5q0 26 8 46.5t20.5 35t29.5 22t35 7.5q41 0 56 -18t15 -42t-17.5 -43t-49.5 -19q7 -35 36 -60
t87 -25q63 0 97.5 45t34.5 120q0 73 -30 116t-92 43q-82 0 -121 -50l-74 30l53 359h288l18 32h72z" />
    <glyph glyph-name="section" unicode="&#xa7;" horiz-adv-x="540" 
d="M502 251q0 -53 -25.5 -92.5t-69.5 -62.5q29 -26 42 -55.5t13 -64.5q0 -39 -15.5 -70t-44.5 -52.5t-70 -32.5t-91 -11q-89 0 -135 33.5t-46 93.5q0 37 18 59.5t53 22.5q29 0 47.5 -15t18.5 -39q0 -15 -10 -32t-41 -22q13 -22 33 -31t55 -9q57 0 86.5 22t29.5 61
q0 25 -11.5 44.5t-29.5 34.5t-40.5 26.5l-44.5 22.5q-35 17 -68.5 36.5t-59.5 44t-42 55.5t-16 72q0 52 25 91.5t69 62.5q-29 25 -41.5 54t-12.5 66q0 79 51.5 122.5t148.5 43.5q46 0 83.5 -10t63.5 -28t40.5 -43.5t14.5 -55.5q0 -34 -18 -53t-54 -19q-33 0 -49 15t-16 36
q0 18 10 33.5t26 23.5q-16 21 -41 30.5t-57 9.5q-48 0 -69.5 -19.5t-21.5 -58.5q0 -26 8.5 -43.5t23.5 -31.5t36 -25.5t46 -23.5l73 -39t63.5 -45t44.5 -57t17 -75zM243 377q-3 2 -17.5 8.5t-39.5 21.5q-14 -14 -22.5 -36t-8.5 -49t9.5 -47t28 -37.5t46 -34.5t63.5 -37
l25 -13t32 -18q12 13 19 33t7 49q0 19 -5 38.5t-20 39t-43 40t-74 42.5z" />
    <glyph glyph-name="cent" unicode="&#xa2;" horiz-adv-x="555" 
d="M256 -9q-126 10 -179 111q-17 32 -26.5 73.5t-9.5 89.5q0 117 56 191.5t159 89.5v106h77v-103q40 -3 74 -15.5t58.5 -33t38 -47.5t13.5 -59q0 -45 -24 -68.5t-59 -23.5q-20 0 -33 6.5t-21.5 17t-12 23.5t-3.5 26q0 25 12.5 43t37.5 26q-11 15 -32.5 25t-48.5 13v-409
q36 5 73 24.5t63 54.5l54 -42q-38 -54 -86.5 -81t-103.5 -35v-102h-77v99zM202 134q10 -18 23 -31.5t31 -21.5v393q-38 -16 -59 -63t-21 -138q0 -54 7 -85t19 -54z" />
    <glyph glyph-name="schwa" unicode="&#x259;" horiz-adv-x="558" 
d="M388 284q0 31 -5.5 55t-14.5 43q-21 46 -57 66t-80 20q-38 0 -77 -19t-65 -52l-46 37q18 24 38.5 45t47 37t61 25t80.5 9q160 0 220 -116q16 -30 22.5 -68t6.5 -82q0 -141 -63.5 -217.5t-188.5 -76.5q-117 0 -174 63.5t-57 175.5q0 11 0.5 21.5t2.5 33.5h349zM270 59
q59 0 85 40.5t32 120.5h-220v-26q0 -65 29.5 -100t73.5 -35z" />
    <glyph glyph-name="mu" unicode="&#xb5;" horiz-adv-x="682" 
d="M104 465l-67 19v56h194v-268q0 -65 3 -98t11 -51q10 -23 29.5 -35t39.5 -12q53 0 87 34q21 22 29.5 49t11.5 69v237l-87 19v56h214v-465l77 -19v-56l-185 -10l-11 110h-4q-23 -53 -58 -81.5t-81 -28.5q-12 0 -25 4.5t-25 13t-20.5 21.5t-11.5 30h-4l10 -238h-127v644z
" />
    <glyph glyph-name="uni03BC" unicode="&#x3bc;" horiz-adv-x="658" 
d="M94 465l-67 19v56h194v-268q0 -32 1 -56t2.5 -41t4.5 -29t8 -21q23 -49 84 -49q18 0 35 9.5t32 26.5q20 21 30.5 47.5t13.5 68.5v237l-87 19v56h214v-465l77 -19v-56l-185 -10l-11 110h-4q-26 -53 -59 -81.5t-71 -28.5q-35 0 -59 17t-32 52h-4l10 -238h-127v644z" />
    <glyph glyph-name="kgreenlandic" unicode="&#x138;" horiz-adv-x="616" 
d="M424 75l-130 179l-59 -50v-129l77 -19v-56h-281v56l77 19v390l-77 19v56h204v-254l168 179l-66 19v56h245v-56l-73 -19l-136 -140l188 -252l53 -17v-56h-249v56z" />
    <glyph glyph-name="eng" unicode="&#x14b;" horiz-adv-x="645" 
d="M454 268q0 32 -1 55.5t-2.5 41t-5 29.5t-7.5 21q-8 24 -29.5 35.5t-41.5 11.5q-28 0 -47.5 -9t-39.5 -26q-22 -20 -33.5 -46.5t-11.5 -68.5v-237l67 -19v-56h-271v56l77 19v390l-77 19v56h174l22 -100h4q30 51 80.5 80.5t109.5 29.5q40 0 72 -14t51 -40
q20 -28 28.5 -78.5t8.5 -136.5v-196q0 -74 -5 -116.5t-17 -69.5q-19 -43 -60 -66t-92 -23q-66 0 -103 26.5t-37 68.5q0 26 15 45t53 19q30 0 47 -15t17 -33q0 -26 -16 -42q2 -7 11.5 -12t21.5 -5q9 0 16.5 4t12 16.5t7 35t2.5 58.5v292z" />
    <glyph glyph-name="thorn" unicode="&#xfe;" horiz-adv-x="614" 
d="M576 275q0 -69 -19 -120.5t-52 -89.5q-56 -65 -161 -65q-48 0 -82 18t-60 57v-180l97 -19v-56h-301v56l77 19v810l-77 19v56h204v-298q28 35 63.5 51.5t86.5 16.5q109 0 160 -63q31 -38 47.5 -90t16.5 -122zM202 274q0 -54 8.5 -90.5t26.5 -63.5q17 -29 39.5 -41
t45.5 -12q29 0 50.5 12.5t35.5 34.5t23.5 61t9.5 92q0 55 -9.5 95t-24.5 68q-15 27 -37.5 40t-48.5 13q-58 0 -84 -46q-35 -55 -35 -163z" />
    <glyph glyph-name="AE" unicode="&#xc6;" horiz-adv-x="1072" 
d="M788 238l-16 94h-138v-257h275l28 148h88v-223h-615v58l94 21v155h-227l-85 -155l71 -21v-58h-277v58l102 21l320 572l-75 11v58h670v-212h-82l-29 139h-258v-240h138l16 95h81v-264h-81zM497 642l-179 -335h186v334z" />
    <glyph glyph-name="ij" unicode="&#x133;" horiz-adv-x="631" 
d="M31 484v56h204v-465l77 -19v-56h-281v56l77 19v390zM97 692q0 32 19.5 52t54.5 20t55 -20t20 -52t-19.5 -51.5t-55.5 -19.5t-55 19.5t-19 51.5zM556 85q0 -74 -4.5 -116.5t-17.5 -69.5q-23 -48 -59 -68.5t-90 -20.5q-64 0 -103.5 24t-39.5 71q0 29 18 50.5t52 21.5
q29 0 46.5 -18t17.5 -44q0 -11 -4.5 -21.5t-13.5 -16.5q2 -11 12.5 -13t14.5 -2q22 0 33 28t11 101v474l-77 19v56h204v-455zM421 692q0 32 19.5 52t54.5 20t55 -20t20 -52t-19.5 -51.5t-55.5 -19.5t-55 19.5t-19 51.5z" />
    <glyph glyph-name="uni01F3" unicode="&#x1f3;" horiz-adv-x="1194" 
d="M38 269q0 66 18 123.5t50 92.5q59 65 159 65q47 0 83 -17t65 -61v233l-77 19v56h204v-705l77 -19v-56l-185 -10l-8 82q-31 -47 -70 -64.5t-91 -17.5q-55 0 -92.5 16.5t-63.5 46.5q-31 35 -50 91t-19 125zM413 266q0 58 -10 100.5t-24 65.5q-31 50 -92 50q-24 0 -49 -10
t-39 -36q-13 -24 -19.5 -65.5t-6.5 -92.5q0 -58 8 -101t20 -66q14 -26 38 -40t53 -14q23 0 47 10.5t40 35.5q16 26 25 68t9 95zM1061 207h87v-207h-473v71l313 398h-189l-24 -131h-87v202h456v-71l-312 -398h209z" />
    <glyph glyph-name="uni01CC" unicode="&#x1cc;" horiz-adv-x="974" 
d="M108 465l-77 19v56h174l22 -100h4q30 51 80.5 80.5t109.5 29.5q40 0 72 -14t51 -40q20 -28 28.5 -78.5t8.5 -136.5v-206l77 -19v-56h-271v56l67 19v193q0 60 -3.5 93.5t-12.5 53.5q-11 26 -30 36t-45 10q-49 0 -83 -32q-41 -38 -45 -117v-237l67 -19v-56h-271v56l77 19
v390zM899 85q0 -74 -4.5 -116.5t-17.5 -69.5q-23 -48 -59 -68.5t-90 -20.5q-64 0 -103.5 24t-39.5 71q0 29 18 50.5t52 21.5q29 0 46.5 -18t17.5 -44q0 -11 -4.5 -21.5t-13.5 -16.5q2 -11 12.5 -13t14.5 -2q22 0 33 28t11 101v474l-77 19v56h204v-455zM764 692q0 32 19.5 52
t54.5 20t55 -20t20 -52t-19.5 -51.5t-55.5 -19.5t-55 19.5t-19 51.5z" />
    <glyph glyph-name="uni01C9" unicode="&#x1c9;" horiz-adv-x="626" 
d="M99 704l-77 19v57h204v-704l77 -19v-57h-281v57l77 19v628zM551 85q0 -74 -4.5 -116.5t-17.5 -69.5q-23 -48 -59 -68.5t-90 -20.5q-64 0 -103.5 24t-39.5 71q0 29 18 50.5t52 21.5q29 0 46.5 -18t17.5 -44q0 -11 -4.5 -21.5t-13.5 -16.5q2 -11 12.5 -13t14.5 -2
q22 0 33 28t11 101v474l-77 19v56h204v-455zM416 692q0 32 19.5 52t54.5 20t55 -20t20 -52t-19.5 -51.5t-55.5 -19.5t-55 19.5t-19 51.5z" />
    <glyph glyph-name="uni01C8" unicode="&#x1c8;" horiz-adv-x="938" 
d="M260 75h242l34 173h85v-248h-585v58l94 21v562l-94 21v58h328v-58l-104 -21v-566zM863 85q0 -74 -4.5 -116.5t-17.5 -69.5q-23 -48 -59 -68.5t-90 -20.5q-64 0 -103.5 24t-39.5 71q0 29 18 50.5t52 21.5q29 0 46.5 -18t17.5 -44q0 -11 -4.5 -21.5t-13.5 -16.5
q2 -11 12.5 -13t14.5 -2q22 0 33 28t11 101v474l-77 19v56h204v-455zM728 692q0 32 19.5 52t54.5 20t55 -20t20 -52t-19.5 -51.5t-55.5 -19.5t-55 19.5t-19 51.5z" />
    <glyph glyph-name="uni01CB" unicode="&#x1cb;" horiz-adv-x="1104" 
d="M125 641l-84 21v58h231l334 -528v449l-84 21v58h263v-58l-84 -21v-641h-111l-370 574v-495l84 -21v-58h-263v58l84 21v562zM1029 85q0 -74 -4.5 -116.5t-17.5 -69.5q-23 -48 -59 -68.5t-90 -20.5q-64 0 -103.5 24t-39.5 71q0 29 18 50.5t52 21.5q29 0 46.5 -18t17.5 -44
q0 -11 -4.5 -21.5t-13.5 -16.5q2 -11 12.5 -13t14.5 -2q22 0 33 28t11 101v474l-77 19v56h204v-455zM894 692q0 32 19.5 52t54.5 20t55 -20t20 -52t-19.5 -51.5t-55.5 -19.5t-55 19.5t-19 51.5z" />
    <glyph glyph-name="uni01F1" unicode="&#x1f1;" horiz-adv-x="1433" 
d="M380 75q54 0 92 16.5t64 49.5q27 34 41 86.5t14 126.5q0 142 -55 217q-27 37 -67.5 55.5t-98.5 18.5h-115v-570h125zM407 720q149 0 232 -84q47 -48 72 -118t25 -150q0 -85 -26 -158t-74 -123q-42 -45 -100 -66t-138 -21h-357v58l84 21v562l-84 21v58h366zM1308 238h87
v-238h-593v61l415 584h-270l-32 -152h-82v227h539v-61l-415 -584h319z" />
    <glyph glyph-name="uni01F2" unicode="&#x1f2;" horiz-adv-x="1337" 
d="M380 75q54 0 92 16.5t64 49.5q27 34 41 86.5t14 126.5q0 142 -55 217q-27 37 -67.5 55.5t-98.5 18.5h-115v-570h125zM407 720q149 0 232 -84q47 -48 72 -118t25 -150q0 -85 -26 -158t-74 -123q-42 -45 -100 -66t-138 -21h-357v58l84 21v562l-84 21v58h366zM1204 207h87
v-207h-473v71l313 398h-189l-24 -131h-87v202h456v-71l-312 -398h209z" />
    <glyph glyph-name="IJ" unicode="&#x132;" horiz-adv-x="987" 
d="M260 79l94 -21v-58h-318v58l94 21v562l-94 21v58h318v-58l-94 -21v-562zM745 641l-99 21v58h308v-58l-79 -21v-423q0 -52 -17 -94t-48 -72t-74.5 -46.5t-96.5 -16.5q-54 0 -98 13t-76 37t-49.5 57t-17.5 74q0 46 20 75t60 29q35 0 57 -20t22 -53q0 -23 -13 -46.5
t-30 -31.5q5 -26 33.5 -43.5t82.5 -17.5q55 0 85 36t30 109v434z" />
    <glyph glyph-name="uni01C7" unicode="&#x1c7;" horiz-adv-x="1242" 
d="M260 75h242l34 173h85v-248h-585v58l94 21v562l-94 21v58h328v-58l-104 -21v-566zM1000 641l-99 21v58h308v-58l-79 -21v-423q0 -52 -17 -94t-48 -72t-74.5 -46.5t-96.5 -16.5q-54 0 -98 13t-76 37t-49.5 57t-17.5 74q0 46 20 75t60 29q35 0 57 -20t22 -53
q0 -23 -13 -46.5t-30 -31.5q5 -26 33.5 -43.5t82.5 -17.5q55 0 85 36t30 109v434z" />
    <glyph glyph-name="uni01CA" unicode="&#x1ca;" horiz-adv-x="1405" 
d="M125 641l-84 21v58h231l334 -528v449l-84 21v58h263v-58l-84 -21v-641h-111l-370 574v-495l84 -21v-58h-263v58l84 21v562zM1163 641l-99 21v58h308v-58l-79 -21v-423q0 -52 -17 -94t-48 -72t-74.5 -46.5t-96.5 -16.5q-54 0 -98 13t-76 37t-49.5 57t-17.5 74q0 46 20 75
t60 29q35 0 57 -20t22 -53q0 -23 -13 -46.5t-30 -31.5q5 -26 33.5 -43.5t82.5 -17.5q55 0 85 36t30 109v434z" />
    <glyph glyph-name="Eng" unicode="&#x14a;" horiz-adv-x="817" 
d="M125 641l-84 21v58h231l334 -528v449l-84 21v58h263v-58l-84 -21v-556q0 -74 -5 -116.5t-17 -69.5q-19 -43 -56 -66t-85 -23q-27 0 -51.5 7t-43 20.5t-30 32t-11.5 42.5q0 28 13.5 46.5t39.5 18.5q23 0 40.5 -13.5t17.5 -41.5q0 -16 -7.5 -25.5t-17.5 -13.5q2 -9 14 -15
t34 -6q34 0 46.5 31.5t12.5 82.5v17l-375 581v-495l84 -21v-58h-263v58l84 21v562z" />
    <glyph glyph-name="Thorn" unicode="&#xde;" horiz-adv-x="656" 
d="M258 148v-69l95 -21v-58h-309v58l84 21v562l-95 21v58h309v-58l-84 -21v-66h152q47 0 85.5 -12.5t64.5 -35.5q34 -31 52.5 -72.5t18.5 -88.5q0 -48 -19 -93t-54 -76q-26 -23 -65 -36t-84 -13h-151zM357 221q28 0 52.5 8.5t38.5 22.5q20 18 31.5 46.5t11.5 61.5
q0 65 -43 106q-17 17 -41.5 26.5t-53.5 9.5h-95v-281h99z" />
    <glyph glyph-name="germandbls" unicode="&#xdf;" horiz-adv-x="647" 
d="M377 424q0 -12 4 -20.5t14.5 -17.5t29 -19.5t48.5 -25.5q47 -24 77.5 -45.5t48 -43t24 -45.5t6.5 -54q0 -39 -15.5 -69.5t-42.5 -51t-64.5 -31.5t-81.5 -11q-38 0 -69.5 9.5t-54 26t-34.5 40t-12 50.5q0 15 4.5 30.5t13.5 27.5t23 19.5t34 7.5q35 0 51.5 -18t16.5 -37
q0 -23 -9.5 -38t-26.5 -23q6 -15 27 -24.5t39 -9.5q16 0 31 5.5t27 15.5t19 24.5t7 32.5q0 17 -4 30t-16 26t-34 28t-58 37q-41 24 -67.5 42.5t-41.5 35.5t-20.5 34t-5.5 39q0 18 3.5 32t14 28t28 29.5t46.5 36.5q33 25 47 50.5t14 61.5q0 46 -24.5 71t-68.5 25
q-46 0 -74 -39.5t-28 -120.5v-575h-204v56l77 19v475q0 56 15.5 100.5t44.5 75.5t70.5 47.5t94.5 16.5q98 0 155 -41t57 -111q0 -40 -17.5 -72t-59.5 -58q-22 -14 -37 -24.5t-24.5 -20t-13.5 -18.5t-4 -21z" />
    <glyph glyph-name="equal" unicode="=" horiz-adv-x="556" 
d="M64 496h428v-88h-428v88zM64 309h428v-89h-428v89z" />
    <glyph glyph-name="yen" unicode="&#xa5;" horiz-adv-x="754" 
d="M550 641l-81 21v58h257v-58l-82 -21l-156 -285h117v-88h-157v-50h157v-88h-157v-51l94 -21v-58h-318v58l94 21v51h-172v88h172v50h-172v88h122l-157 285l-83 21v58h306v-58l-84 -21l148 -278z" />
    <glyph glyph-name="dollar" unicode="$" horiz-adv-x="588" 
d="M257 -10q-52 4 -93.5 19.5t-70 39.5t-43.5 53t-15 60q0 37 20.5 61.5t58.5 24.5q34 0 53.5 -19t19.5 -48q0 -25 -13 -41.5t-29 -24.5q17 -23 44 -38.5t68 -17.5v244q-38 15 -75.5 33t-67.5 44t-48.5 62.5t-18.5 87.5q0 45 15 81.5t42.5 62.5t66 40.5t86.5 16.5v120h77
v-122q46 -5 82 -21t61 -38.5t38.5 -50.5t13.5 -58q0 -37 -20.5 -60t-57.5 -23q-27 0 -48 14.5t-21 43.5q0 19 9.5 39t26.5 31q-26 48 -84 54v-243q55 -26 96.5 -50.5t69.5 -51.5t41.5 -58.5t13.5 -72.5q0 -87 -58 -138t-163 -56v-120h-77v120zM417 156q0 45 -24 71.5
t-59 47.5v-215q38 5 60.5 29.5t22.5 66.5zM178 558q0 -21 4.5 -35.5t14 -26.5t24.5 -23t36 -24v211q-42 -5 -60.5 -32t-18.5 -70z" />
    <glyph glyph-name="OE" unicode="&#x152;" horiz-adv-x="1082" 
d="M798 238l-17 94h-137v-257h274l29 148h88v-223h-654q-80 0 -138 21t-100 66q-48 50 -74 123t-26 158q0 80 25 150t72 118q83 84 232 84h641v-212h-82l-29 139h-258v-240h137l17 95h81v-264h-81zM514 645h-105q-58 0 -98.5 -18.5t-67.5 -55.5q-55 -75 -55 -217
q0 -74 14 -126.5t41 -86.5q26 -33 64 -49.5t92 -16.5h115v570z" />
    <glyph glyph-name="period" unicode="." horiz-adv-x="247" 
d="M45 52q0 38 21 59.5t57 21.5t57.5 -22t21.5 -58t-21 -57t-59 -21q-36 0 -56.5 20t-20.5 57z" />
    <glyph glyph-name="comma" unicode="," horiz-adv-x="254" 
d="M125 133q38 0 61 -26.5t23 -71.5q0 -54 -34.5 -103t-106.5 -90l-31 36q36 30 61.5 56.5t27.5 47.5l-4 3q-8 -6 -22 -6q-23 0 -39 20t-16 54q0 35 22 57.5t58 22.5z" />
    <glyph glyph-name="colon" unicode=":" horiz-adv-x="277" 
d="M60 38q0 38 21 59.5t57 21.5t57.5 -22t21.5 -58t-21 -57t-59 -21q-36 0 -56.5 20t-20.5 57zM60 388q0 38 21 59.5t57 21.5t57.5 -22t21.5 -58t-21 -57t-59 -21q-36 0 -56.5 20t-20.5 57z" />
    <glyph glyph-name="semicolon" unicode=";" horiz-adv-x="287" 
d="M64 387q0 38 21 59.5t57 21.5t57.5 -22t21.5 -58t-21 -57t-59 -21q-36 0 -56.5 20t-20.5 57zM142 133q38 0 61 -26.5t23 -71.5q0 -54 -34.5 -103t-106.5 -90l-31 36q36 30 61.5 56.5t27.5 47.5l-4 3q-8 -6 -22 -6q-23 0 -39 20t-16 54q0 35 22 57.5t58 22.5z" />
    <glyph glyph-name="exclam" unicode="!" horiz-adv-x="291" 
d="M103 205q0 39 -2 83t-4.5 85t-5.5 75t-4 52q-3 37 -8 72.5t-5 77.5q0 35 18 57.5t56 22.5q39 0 54.5 -23.5t15.5 -55.5q0 -42 -4 -78t-9 -73q0 -18 -2.5 -52l-5.5 -75t-5.5 -85t-2.5 -83h-86zM67 52q0 38 21 59.5t57 21.5t57.5 -22t21.5 -58t-21 -57t-59 -21
q-36 0 -56.5 20t-20.5 57z" />
    <glyph glyph-name="exclamdown" unicode="&#xa1;" horiz-adv-x="271" 
d="M179 335q0 -39 2.5 -83t5.5 -85l5.5 -75t2.5 -52q5 -37 9 -73t4 -78q0 -32 -15.5 -55.5t-54.5 -23.5q-38 0 -56 22.5t-18 57.5q0 42 5 77.5t8 72.5q1 18 4 52t5.5 75t4.5 85t2 83h86zM57 485q0 38 21 59.5t57 21.5t57.5 -22t21.5 -58t-21 -57t-59 -21q-36 0 -56.5 20
t-20.5 57z" />
    <glyph glyph-name="question" unicode="?" horiz-adv-x="506" 
d="M180 205q0 30 5 55t16.5 49t31.5 48.5t50 54.5q35 35 50 67t15 72q0 53 -30 81.5t-87 28.5q-29 0 -51 -14.5t-22 -34.5q20 -11 31.5 -30.5t11.5 -41.5q0 -28 -22.5 -49.5t-60.5 -21.5q-19 0 -35 8.5t-27 23.5t-17.5 35t-6.5 42q0 32 16 60t44 48.5t66 32.5t82 12
q53 0 97 -13t75.5 -36t49 -55t17.5 -70q0 -45 -25 -87.5t-86 -99.5q-29 -27 -48.5 -48t-31.5 -39.5t-17 -37t-5 -40.5h-86zM146 52q0 38 21 59.5t57 21.5t57.5 -22t21.5 -58t-21 -57t-59 -21q-36 0 -56.5 20t-20.5 57z" />
    <glyph glyph-name="questiondown" unicode="&#xbf;" horiz-adv-x="500" 
d="M324 336q0 -30 -5 -55t-16.5 -49t-31.5 -48.5t-50 -54.5q-35 -35 -50 -67t-15 -72q0 -53 30 -81.5t87 -28.5q29 0 51 14.5t22 34.5q-20 11 -31.5 30.5t-11.5 41.5q0 28 22.5 49.5t60.5 21.5q19 0 35 -8.5t27 -23.5t17.5 -35t6.5 -42q0 -32 -16 -60t-44 -48.5t-66 -32.5
t-82 -12q-53 0 -97 13t-75.5 36t-49 55t-17.5 70q0 45 25 87.5t86 99.5q29 27 48.5 48t31.5 39.5t17 37t5 40.5h86zM358 489q0 -38 -21 -59.5t-57 -21.5t-57.5 22t-21.5 58t21 57t59 21q36 0 56.5 -20t20.5 -57z" />
    <glyph glyph-name="hyphen" unicode="-" horiz-adv-x="371" 
d="M60 326h251v-97h-251v97z" />
    <glyph glyph-name="endash" unicode="&#x2013;" horiz-adv-x="616" 
d="M61 322h494v-88h-494v88z" />
    <glyph glyph-name="emdash" unicode="&#x2014;" horiz-adv-x="924" 
d="M61 322h801v-88h-801v88z" />
    <glyph glyph-name="underscore" unicode="_" horiz-adv-x="614" 
d="M60 15h494v-88h-494v88z" />
    <glyph glyph-name="bar" unicode="|" horiz-adv-x="255" 
d="M84 770h87v-940h-87v940z" />
    <glyph glyph-name="dotaccent" unicode="&#x2d9;" horiz-adv-x="185" 
d="M15 686q0 36 21 57t56 21t56.5 -21.5t21.5 -56.5t-21 -56t-57 -21t-56.5 20.5t-20.5 56.5z" />
    <glyph glyph-name="dieresis" unicode="&#xa8;" horiz-adv-x="407" 
d="M15 690q0 35 19.5 54.5t53.5 19.5t54 -20t20 -54t-19.5 -53.5t-54.5 -19.5q-34 0 -53.5 19.5t-19.5 53.5zM245 690q0 35 19.5 54.5t53.5 19.5t54 -20t20 -54t-19.5 -53.5t-54.5 -19.5q-34 0 -53.5 19.5t-19.5 53.5z" />
    <glyph glyph-name="parenleft" unicode="(" horiz-adv-x="382" 
d="M33 353q0 100 24.5 189.5t67 160.5t100.5 118.5t124 64.5l30 -70q-48 -11 -88 -50t-68 -100t-43.5 -141.5t-15.5 -173.5q0 -95 15 -174t42.5 -138.5t66.5 -96t86 -46.5l-40 -78q-63 13 -117.5 59t-95.5 117t-64.5 163t-23.5 196z" />
    <glyph glyph-name="parenright" unicode=")" horiz-adv-x="382" 
d="M349 353q0 -104 -23.5 -196t-64.5 -163t-95.5 -117t-117.5 -59l-40 78q47 10 86 46.5t66.5 96t42.5 138.5t15 174q0 93 -15.5 173.5t-43.5 141.5t-68 100t-88 50l30 70q66 -17 124 -64.5t100.5 -118.5t67 -160.5t24.5 -189.5z" />
    <glyph glyph-name="bracketleft" unicode="[" horiz-adv-x="383" 
d="M84 855h281v-75h-162v-855h162v-74h-281v1004z" />
    <glyph glyph-name="bracketright" unicode="]" horiz-adv-x="383" 
d="M299 -149h-281v74h162v855h-162v75h281v-1004z" />
    <glyph glyph-name="brokenbar" unicode="&#xa6;" horiz-adv-x="259" 
d="M86 248h87v-418h-87v418zM86 770h87v-402h-87v402z" />
    <glyph glyph-name="logicalnot" unicode="&#xac;" horiz-adv-x="568" 
d="M60 413h439v-239h-90v139h-349v100z" />
    <glyph glyph-name="Schwa" unicode="&#x18f;" horiz-adv-x="709" 
d="M520 376q0 45 -8 91.5t-25 81.5q-26 57 -68 84.5t-107 27.5q-63 0 -113 -31.5t-83 -80.5l-53 47q24 36 50.5 61t57.5 41.5t67.5 24t81.5 7.5q212 0 298 -153q24 -44 35.5 -98.5t11.5 -116.5q0 -85 -20 -154t-60.5 -117.5t-101.5 -74.5t-143 -26q-153 0 -228.5 83.5
t-75.5 232.5q0 16 1 30l3 40h480zM349 59q81 0 121 63t49 174h-339v-36q0 -47 13.5 -84t36.5 -63t53.5 -40t65.5 -14z" />
    <glyph glyph-name="Euro" unicode="&#x20ac;" horiz-adv-x="739" 
d="M34 463h107q21 131 95 199t203 68q58 0 105.5 -14t81.5 -38t52.5 -57t18.5 -71t-22 -57.5t-60 -19.5q-26 0 -45.5 17t-19.5 43q0 20 9.5 35t26.5 23q-20 32 -55 50.5t-83 18.5q-72 0 -115.5 -48.5t-54.5 -148.5h194v-75h-199q-1 -8 -1 -15.5v-15.5v-17.5t1 -16.5h199v-76
h-193q12 -98 48.5 -143.5t102.5 -45.5q75 0 121.5 38.5t56.5 108.5h85q-23 -110 -91 -162.5t-186 -52.5q-238 0 -276 257h-106v76h100q-1 7 -1 13.5v14.5v19t1 18h-100v75z" />
    <glyph glyph-name="braceleft" unicode="{" horiz-adv-x="424" 
d="M2 401h34q55 0 80 26.5t25 85.5q0 13 -1 33.5t-2.5 43t-2.5 43.5t-1 34q0 91 65 136.5t207 51.5v-75q-81 -5 -114.5 -31.5t-33.5 -84.5q0 -8 0.5 -26t1.5 -38.5t1.5 -40t0.5 -30.5q0 -69 -25.5 -108t-83.5 -59v-4q59 -14 84 -53.5t25 -119.5q0 -13 -0.5 -33.5t-1.5 -42.5
t-1.5 -40.5t-0.5 -27.5q0 -59 34 -85.5t114 -30.5v-75q-142 6 -207 51t-65 138q0 13 1 34.5t2.5 45.5t2.5 45.5t1 34.5q0 60 -24.5 86.5t-80.5 26.5h-34v89z" />
    <glyph glyph-name="braceright" unicode="}" horiz-adv-x="424" 
d="M422 312h-34q-56 0 -80.5 -26.5t-24.5 -86.5q0 -13 1 -34.5t2.5 -45.5t2.5 -45.5t1 -34.5q0 -93 -65 -138t-207 -51v75q80 4 114 30.5t34 85.5q0 9 -0.5 27.5t-1.5 40.5t-1.5 42.5t-0.5 33.5q0 80 25 119.5t84 53.5v4q-58 20 -83.5 59t-25.5 108q0 11 0.5 30.5t1.5 40
t1.5 38.5t0.5 26q0 58 -33.5 84.5t-114.5 31.5v75q142 -6 207 -51.5t65 -136.5q0 -13 -1 -34t-2.5 -43.5t-2.5 -43t-1 -33.5q0 -59 25 -85.5t80 -26.5h34v-89z" />
    <glyph glyph-name="dotlessi" unicode="&#x131;" horiz-adv-x="331" 
d="M31 484v56h204v-465l77 -19v-56h-281v56l77 19v390z" />
    <glyph glyph-name="dotlessj" unicode="&#x237;" horiz-adv-x="300" 
d="M225 85q0 -74 -5 -116.5t-17 -69.5q-19 -43 -54.5 -66t-89.5 -23q-26 0 -52 6t-47.5 18t-35 30.5t-13.5 44.5q0 29 17.5 48.5t51.5 19.5q28 0 45.5 -14.5t17.5 -43.5q0 -12 -4 -23t-12 -19q2 -9 10.5 -12.5t16.5 -3.5q16 0 25 12.5t13.5 30t5 37.5t0.5 35v489l-77 19v56
h204v-455z" />
    <glyph glyph-name="periodcentered" unicode="&#xb7;" horiz-adv-x="264" 
d="M54 298q0 37 21 58.5t57 21.5t57.5 -22t21.5 -58t-21.5 -57t-57.5 -21q-38 0 -58 20t-20 58z" />
    <glyph glyph-name="uni2219" unicode="&#x2219;" horiz-adv-x="264" 
d="M54 298q0 37 21 58.5t57 21.5t57.5 -22t21.5 -58t-21.5 -57t-57.5 -21q-38 0 -58 20t-20 58z" />
    <glyph glyph-name="quotesinglbase" unicode="&#x201a;" horiz-adv-x="254" 
d="M125 133q38 0 61 -26.5t23 -71.5q0 -54 -34.5 -103t-106.5 -90l-31 36q36 30 61.5 56.5t27.5 47.5l-4 3q-8 -6 -22 -6q-23 0 -39 20t-16 54q0 35 22 57.5t58 22.5z" />
    <glyph glyph-name="quotedblbase" unicode="&#x201e;" horiz-adv-x="454" 
d="M125 120q38 0 61 -26.5t23 -71.5q0 -54 -34.5 -103t-106.5 -90l-31 36q36 30 61.5 56.5t27.5 47.5l-4 3q-8 -6 -22 -6q-23 0 -39 20t-16 54q0 35 22 57.5t58 22.5zM325 120q38 0 61 -26.5t23 -71.5q0 -54 -34.5 -103t-106.5 -90l-31 36q36 30 61.5 56.5t27.5 47.5l-4 3
q-8 -6 -22 -6q-23 0 -39 20t-16 54q0 35 22 57.5t58 22.5z" />
    <glyph glyph-name="quotedblright" unicode="&#x201d;" horiz-adv-x="449" 
d="M133 760q38 0 61 -26.5t23 -71.5q0 -54 -34.5 -103t-106.5 -90l-31 36q36 30 61.5 56.5t27.5 47.5l-4 3q-8 -6 -22 -6q-23 0 -39 20t-16 54q0 35 22 57.5t58 22.5zM333 760q38 0 61 -26.5t23 -71.5q0 -54 -34.5 -103t-106.5 -90l-31 36q36 30 61.5 56.5t27.5 47.5l-4 3
q-8 -6 -22 -6q-23 0 -39 20t-16 54q0 35 22 57.5t58 22.5z" />
    <glyph glyph-name="quotedblleft" unicode="&#x201c;" horiz-adv-x="449" 
d="M121 469q-38 0 -61 26.5t-23 71.5q0 54 34.5 103t106.5 90l31 -36q-36 -30 -61.5 -56.5t-27.5 -47.5l4 -3q7 6 22 6q23 0 39 -20t16 -54q0 -35 -22 -57.5t-58 -22.5zM321 469q-38 0 -61 26.5t-23 71.5q0 54 34.5 103t106.5 90l31 -36q-36 -30 -61.5 -56.5t-27.5 -47.5
l4 -3q7 6 22 6q23 0 39 -20t16 -54q0 -35 -22 -57.5t-58 -22.5z" />
    <glyph glyph-name="quoteleft" unicode="&#x2018;" horiz-adv-x="249" 
d="M121 469q-38 0 -61 26.5t-23 71.5q0 54 34.5 103t106.5 90l31 -36q-36 -30 -61.5 -56.5t-27.5 -47.5l4 -3q7 6 22 6q23 0 39 -20t16 -54q0 -35 -22 -57.5t-58 -22.5z" />
    <glyph glyph-name="quoteright" unicode="&#x2019;" horiz-adv-x="250" 
d="M133 760q38 0 61 -26.5t23 -71.5q0 -54 -34.5 -103t-106.5 -90l-31 36q36 30 61.5 56.5t27.5 47.5l-4 3q-8 -6 -22 -6q-23 0 -39 20t-16 54q0 35 22 57.5t58 22.5z" />
    <glyph glyph-name="minus" unicode="&#x2212;" horiz-adv-x="526" 
d="M64 403h398v-81h-398v81z" />
    <glyph glyph-name="plus" unicode="+" horiz-adv-x="500" 
d="M36 403h165v158h98v-158h165v-82h-165v-158h-98v158h-165v82z" />
    <glyph glyph-name="plusminus" unicode="&#xb1;" horiz-adv-x="530" 
d="M61 432h160v148h88v-148h160v-72h-160v-148h-88v148h-160v72zM61 132h408v-72h-408v72z" />
    <glyph glyph-name="divide" unicode="&#xf7;" horiz-adv-x="515" 
d="M39 387h438v-69h-438v69zM187 174q0 35 19.5 55.5t54.5 20.5t55 -20.5t20 -55.5t-20 -54.5t-55 -19.5q-74 0 -74 74zM187 528q0 35 19.5 55.5t54.5 20.5t55 -20.5t20 -55.5t-20 -54.5t-55 -19.5q-74 0 -74 74z" />
    <glyph glyph-name="multiply" unicode="&#xd7;" horiz-adv-x="506" 
d="M49 218l135 134l-135 134l70 70l134 -135l134 135l70 -70l-135 -134l135 -134l-70 -70l-134 135l-134 -135z" />
    <glyph glyph-name="paragraph" unicode="&#xb6;" horiz-adv-x="702" 
d="M482 591h-40v-687h-100v284h-66q-122 0 -184.5 61.5t-62.5 182.5q0 115 63.5 176.5t182.5 61.5h391v-58l-84 -21v-687h-100v687z" />
    <glyph glyph-name="uni00A0" unicode="&#xa0;" horiz-adv-x="236" 
 />
    <glyph glyph-name="a" unicode="a" horiz-adv-x="549" 
d="M30 118q0 41 18.5 72.5t57 55.5t98 41t141.5 30q-5 50 -11.5 76.5t-17.5 46.5q-14 23 -32.5 37t-47.5 14q-21 0 -38.5 -8t-23.5 -22q14 -8 19.5 -22.5t5.5 -25.5q0 -25 -22 -44.5t-53 -19.5q-32 0 -49.5 20.5t-17.5 51.5t17 55t45 40.5t62.5 25t69.5 8.5q47 0 84.5 -13.5
t60.5 -33.5q79 -70 79 -222v-130q0 -50 6.5 -68.5t28.5 -18.5h45v-45q-92 -29 -139 -29q-17 0 -27.5 5t-16.5 17t-8.5 33t-2.5 54h-4q-31 -51 -82 -80t-110 -29q-63 0 -99 34t-36 94zM226 63q21 0 46.5 13.5t44.5 39.5q11 14 21 40t10 62q0 12 -1 26.5t-3 28.5
q-52 -11 -86.5 -23.5t-55.5 -27.5t-30 -34.5t-9 -44.5q0 -44 20 -62t43 -18z" />
    <glyph glyph-name="ae" unicode="&#xe6;" horiz-adv-x="850" 
d="M31 117q0 39 17.5 70.5t55.5 56t98 42.5t144 31q-5 52 -12 78.5t-17 44.5q-30 51 -87 51q-17 0 -34.5 -10t-22.5 -27q13 -10 20 -24.5t7 -28.5q0 -24 -18.5 -40.5t-51.5 -16.5t-52.5 19.5t-19.5 56.5q0 31 17.5 55.5t45 41t62 25t68.5 8.5q60 0 104 -25.5t58 -77.5h5
q20 51 63.5 77t100.5 26q117 0 175 -63.5t58 -175.5q0 -10 -0.5 -22.5t-2.5 -32.5h-349q0 -38 5 -64t15 -49q15 -38 44 -54.5t63 -16.5q48 0 86.5 19.5t69.5 53.5l60 -43q-20 -24 -42.5 -44.5t-50.5 -35.5t-63 -23.5t-80 -8.5q-132 0 -190 109h-7q-31 -51 -80 -80t-127 -29
q-63 0 -99 33.5t-36 93.5zM566 481q-47 0 -72 -38.5t-30 -122.5h220v26q0 65 -30.5 100t-87.5 35zM238 63q20 0 42 15t40 40q13 18 21 41.5t8 55.5q0 17 -1 29.5t-3 27.5q-52 -12 -87 -24t-56 -27t-29.5 -35t-8.5 -48q0 -36 19.5 -55.5t54.5 -19.5z" />
    <glyph glyph-name="guilsinglleft" unicode="&#x2039;" horiz-adv-x="338" 
d="M295 54l-47 -47l-216 223v47l214 217l48 -36l-132 -203z" />
    <glyph glyph-name="guilsinglright" unicode="&#x203a;" horiz-adv-x="338" 
d="M176 255l-132 203l48 36l214 -217v-47l-216 -223l-47 47z" />
    <glyph glyph-name="guillemotleft" unicode="&#xab;" horiz-adv-x="548" 
d="M295 54l-47 -47l-216 223v47l214 217l48 -36l-132 -203zM505 54l-47 -47l-216 223v47l214 217l48 -36l-132 -203z" />
    <glyph glyph-name="guillemotright" unicode="&#xbb;" horiz-adv-x="548" 
d="M176 255l-132 203l48 36l214 -217v-47l-216 -223l-47 47zM386 255l-132 203l48 36l214 -217v-47l-216 -223l-47 47z" />
    <glyph glyph-name="numbersign" unicode="#" horiz-adv-x="761" 
d="M435 187h-173l-40 -197h-87l40 197h-143v68h155l39 191h-145v68h157l43 216h87l-43 -216h173l43 216h87l-43 -216h143v-68h-155l-39 -191h145v-68h-157l-40 -197h-87zM274 255h173l39 191h-173z" />
    <glyph glyph-name="asterisk" unicode="*" horiz-adv-x="482" 
d="M95 480q0 13 10 28t26 29.5t35.5 28.5t39.5 26q-33 -3 -66 -3q-15 0 -33 1t-33 6t-25 15.5t-10 30.5t13.5 36.5t35.5 16.5q15 0 31 -5.5t33 -14.5t33.5 -20l31.5 -22q-11 32 -20.5 64.5t-9.5 58.5q0 23 15 37.5t38 14.5q21 0 37 -14t16 -38q0 -26 -10 -60.5t-21 -66.5
l32 22.5t34.5 21t34 15.5t31.5 6q22 0 35.5 -16.5t13.5 -36.5t-10 -30.5t-25 -15.5t-33 -6t-33 -1q-17 0 -35 1t-36 3l34 -20t38.5 -27t31.5 -32t13 -35q0 -19 -15.5 -35t-37.5 -16q-18 0 -32.5 13t-25.5 33.5t-20 44.5t-16 47l-19.5 -54.5t-20 -44t-23 -29.5t-28.5 -11
q-21 0 -38 16.5t-17 37.5z" />
    <glyph glyph-name="bullet" unicode="&#x2022;" horiz-adv-x="406" 
d="M70 343q0 63 35.5 99.5t97.5 36.5t98 -37t36 -99t-36 -97t-98 -35q-64 0 -98.5 34t-34.5 98z" />
    <glyph glyph-name="dagger" unicode="&#x2020;" horiz-adv-x="460" 
d="M192 510q-11 0 -26 -2.5t-31.5 -6t-32 -6t-27.5 -2.5q-22 0 -34.5 12.5t-12.5 37.5q0 26 13 38t34 12q12 0 27.5 -2.5t32 -6t31.5 -6t26 -2.5l5 5q0 14 -3.5 37l-7.5 47l-7.5 45.5t-3.5 32.5q0 21 13.5 34t41.5 13q27 0 41 -12.5t14 -34.5q0 -11 -3.5 -32.5l-7.5 -45.5
l-7.5 -47t-3.5 -37l5 -5q10 0 25 2.5t31.5 6t32.5 6t28 2.5q21 0 34 -12t13 -38q0 -25 -12.5 -37.5t-34.5 -12.5q-12 0 -27.5 2.5t-32 6t-32 6t-25.5 2.5l-5 -5v-222q0 -64 3.5 -114t7.5 -87.5t7.5 -63t3.5 -41.5q0 -22 -14 -34.5t-41 -12.5q-28 0 -41.5 13t-13.5 34
q0 16 3.5 41.5t7.5 63t7.5 87.5t3.5 114v222z" />
    <glyph glyph-name="daggerdbl" unicode="&#x2021;" horiz-adv-x="474" 
d="M270 371q0 -39 1 -78t4 -78l5 -5q10 0 24.5 2.5t30 6t30.5 6t27 2.5q22 0 34.5 -12.5t12.5 -37.5q0 -26 -13 -38t-34 -12q-12 0 -27.5 2.5t-32 6t-32 6t-25.5 2.5l-5 -5q0 -14 3.5 -37l7.5 -47l7.5 -45.5t3.5 -32.5q0 -22 -14 -34.5t-41 -12.5q-28 0 -41.5 13t-13.5 34
q0 11 3.5 32.5l7.5 45.5l7.5 47t3.5 37l-5 5q-11 0 -26 -2.5t-31.5 -6t-32 -6t-27.5 -2.5q-21 0 -34 12t-13 38q0 25 12.5 37.5t34.5 12.5q12 0 26.5 -2.5t30 -6t30 -6t25.5 -2.5l5 5q3 39 4 78t1 78q0 34 -1 67t-4 67l-5 5q-11 0 -25.5 -2.5t-30 -6t-30 -6t-26.5 -2.5
q-22 0 -34.5 12.5t-12.5 37.5q0 26 13 38t34 12q12 0 27.5 -2.5t32 -6t31.5 -6t26 -2.5l5 5q0 14 -3.5 37l-7.5 47l-7.5 45.5t-3.5 32.5q0 21 13.5 34t41.5 13q27 0 41 -12.5t14 -34.5q0 -11 -3.5 -32.5l-7.5 -45.5l-7.5 -47t-3.5 -37l5 -5q10 0 25 2.5t31.5 6t32.5 6
t28 2.5q21 0 34 -12t13 -38q0 -25 -12.5 -37.5t-34.5 -12.5q-12 0 -27 2.5t-30.5 6t-30 6t-24.5 2.5l-5 -5q-3 -34 -4 -67t-1 -67z" />
    <glyph glyph-name="acute" unicode="&#xb4;" horiz-adv-x="259" 
d="M74 715q15 24 27.5 39.5t23.5 24.5t23 13t26 4q32 0 44 -12.5t12 -29.5q0 -15 -18 -33.5t-66 -53.5l-38 -28h-83z" />
    <glyph glyph-name="grave" unicode="`" horiz-adv-x="259" 
d="M234 639h-83l-38 28q-48 35 -66 53.5t-18 33.5q0 17 12 29.5t44 12.5q14 0 26 -4t23 -13t23.5 -24.5t27.5 -39.5z" />
    <glyph glyph-name="hungarumlaut" unicode="&#x2dd;" horiz-adv-x="425" 
d="M59 715q15 24 27.5 39.5t23.5 24.5t23 13t26 4q32 0 44 -12.5t12 -29.5q0 -15 -18 -33.5t-66 -53.5l-38 -28h-83zM254 715q15 24 27.5 39.5t23.5 24.5t23 13t26 4q32 0 44 -12.5t12 -29.5q0 -15 -18 -33.5t-66 -53.5l-38 -28h-83z" />
    <glyph glyph-name="tilde" unicode="&#x2dc;" horiz-adv-x="398" 
d="M0 624q2 73 37 109t90 36q25 0 44 -8.5t35 -19t31.5 -19t35.5 -8.5q30 0 45 13t20 37h60q-21 -151 -127 -151q-25 0 -43.5 8.5t-35 19t-32.5 19.5t-35 9q-30 0 -45 -12t-20 -33h-60z" />
    <glyph glyph-name="asciitilde" unicode="~" horiz-adv-x="483" 
d="M60 289q18 145 112 145q25 0 44 -8.5t34.5 -19t30.5 -19t33 -8.5q43 0 54 50h60q-19 -151 -112 -151q-25 0 -43.5 8.5t-34.5 19l-31 19.5t-33 9q-21 0 -35 -12t-19 -33h-60z" />
    <glyph glyph-name="cdotaccent" unicode="&#x10b;" horiz-adv-x="546" 
d="M300 550q46 0 85 -11t67.5 -31.5t44.5 -49.5t16 -64q0 -45 -24 -68.5t-59 -23.5q-20 0 -33 6.5t-21.5 17t-12 23.5t-3.5 26q0 25 12.5 43t37.5 26q-14 18 -42 29t-63 11q-32 0 -56.5 -11t-41.5 -35.5t-26 -65t-9 -99.5q0 -54 7 -85t19 -54q16 -29 41 -45.5t64 -16.5
q20 0 42.5 5t44 14.5t41 24.5t34.5 36l54 -42q-47 -65 -108.5 -92.5t-131.5 -27.5q-75 0 -126 28.5t-80 83.5q-17 32 -26.5 73.5t-9.5 89.5q0 65 18 117.5t51.5 90t82.5 57.5t111 20zM231 686q0 36 21 57t56 21t56.5 -21.5t21.5 -56.5t-21 -56t-57 -21t-56.5 20.5
t-20.5 56.5z" />
    <glyph glyph-name="edotaccent" unicode="&#x117;" horiz-adv-x="556" 
d="M169 256q0 -68 20 -113q32 -71 110 -71q45 0 88 19.5t74 60.5l54 -42q-35 -50 -94.5 -85t-146.5 -35q-74 0 -126.5 29.5t-80.5 86.5q-15 31 -22 68.5t-7 82.5q0 140 64 216.5t183 76.5q54 0 98 -16.5t74.5 -47t47 -75t16.5 -100.5q0 -11 -0.5 -21.5t-2.5 -33.5h-349z
M283 481q-103 0 -113 -161h220v26q0 65 -28 100t-79 35zM199 686q0 36 21 57t56 21t56.5 -21.5t21.5 -56.5t-21 -56t-57 -21t-56.5 20.5t-20.5 56.5z" />
    <glyph glyph-name="ndotaccent" unicode="&#x1e45;" horiz-adv-x="674" 
d="M108 465l-77 19v56h174l22 -100h4q30 51 80.5 80.5t109.5 29.5q40 0 72 -14t51 -40q20 -28 28.5 -78.5t8.5 -136.5v-206l77 -19v-56h-271v56l67 19v193q0 60 -3.5 93.5t-12.5 53.5q-11 26 -30 36t-45 10q-49 0 -83 -32q-41 -38 -45 -117v-237l67 -19v-56h-271v56l77 19
v390zM262 686q0 36 21 57t56 21t56.5 -21.5t21.5 -56.5t-21 -56t-57 -21t-56.5 20.5t-20.5 56.5z" />
    <glyph glyph-name="zdotaccent" unicode="&#x17c;" horiz-adv-x="558" 
d="M425 207h87v-207h-473v71l313 398h-189l-24 -131h-87v202h456v-71l-312 -398h209zM203 686q0 36 21 57t56 21t56.5 -21.5t21.5 -56.5t-21 -56t-57 -21t-56.5 20.5t-20.5 56.5z" />
    <glyph glyph-name="gdotaccent" unicode="&#x121;" horiz-adv-x="575" 
d="M528 -6q0 -92 -66 -135t-210 -43q-48 0 -90 6.5t-73.5 21.5t-49.5 39t-18 59q0 46 29 74t86 30v4q-76 21 -76 76q0 15 5.5 31.5t18 31t32 25.5t47.5 15q-54 13 -83.5 53.5t-29.5 95.5q0 80 53.5 126t155.5 46q33 0 58.5 -3t46 -9t36.5 -14.5t31 -19.5l34 12l92 44h17
v-103h-17l-70 8h-25q20 -31 20 -81q0 -82 -50.5 -129.5t-147.5 -47.5q-11 0 -20.5 0.5t-19.5 1.5q-39 -5 -62.5 -17.5t-23.5 -35.5q0 -18 18.5 -24.5t69.5 -6.5h116q166 0 166 -131zM253 33q-67 0 -97 -21t-30 -55q0 -76 143 -76q77 0 117 22t40 66q0 35 -31 49.5t-107 14.5
h-35zM168 382q0 -57 24 -86t69 -29q54 0 78.5 29t24.5 86q0 53 -24.5 80t-78.5 27q-45 0 -69 -27t-24 -80zM190 686q0 36 21 57t56 21t56.5 -21.5t21.5 -56.5t-21 -56t-57 -21t-56.5 20.5t-20.5 56.5z" />
    <glyph glyph-name="adieresis" unicode="&#xe4;" horiz-adv-x="549" 
d="M30 118q0 41 18.5 72.5t57 55.5t98 41t141.5 30q-5 50 -11.5 76.5t-17.5 46.5q-14 23 -32.5 37t-47.5 14q-21 0 -38.5 -8t-23.5 -22q14 -8 19.5 -22.5t5.5 -25.5q0 -25 -22 -44.5t-53 -19.5q-32 0 -49.5 20.5t-17.5 51.5t17 55t45 40.5t62.5 25t69.5 8.5q47 0 84.5 -13.5
t60.5 -33.5q79 -70 79 -222v-130q0 -50 6.5 -68.5t28.5 -18.5h45v-45q-92 -29 -139 -29q-17 0 -27.5 5t-16.5 17t-8.5 33t-2.5 54h-4q-31 -51 -82 -80t-110 -29q-63 0 -99 34t-36 94zM226 63q21 0 46.5 13.5t44.5 39.5q11 14 21 40t10 62q0 12 -1 26.5t-3 28.5
q-52 -11 -86.5 -23.5t-55.5 -27.5t-30 -34.5t-9 -44.5q0 -44 20 -62t43 -18zM83 690q0 35 19.5 54.5t53.5 19.5t54 -20t20 -54t-19.5 -53.5t-54.5 -19.5q-34 0 -53.5 19.5t-19.5 53.5zM313 690q0 35 19.5 54.5t53.5 19.5t54 -20t20 -54t-19.5 -53.5t-54.5 -19.5
q-34 0 -53.5 19.5t-19.5 53.5z" />
    <glyph glyph-name="edieresis" unicode="&#xeb;" horiz-adv-x="556" 
d="M169 256q0 -68 20 -113q32 -71 110 -71q45 0 88 19.5t74 60.5l54 -42q-35 -50 -94.5 -85t-146.5 -35q-74 0 -126.5 29.5t-80.5 86.5q-15 31 -22 68.5t-7 82.5q0 140 64 216.5t183 76.5q54 0 98 -16.5t74.5 -47t47 -75t16.5 -100.5q0 -11 -0.5 -21.5t-2.5 -33.5h-349z
M283 481q-103 0 -113 -161h220v26q0 65 -28 100t-79 35zM90 690q0 35 19.5 54.5t53.5 19.5t54 -20t20 -54t-19.5 -53.5t-54.5 -19.5q-34 0 -53.5 19.5t-19.5 53.5zM320 690q0 35 19.5 54.5t53.5 19.5t54 -20t20 -54t-19.5 -53.5t-54.5 -19.5q-34 0 -53.5 19.5t-19.5 53.5z
" />
    <glyph glyph-name="odieresis" unicode="&#xf6;" horiz-adv-x="594" 
d="M557 270q0 -64 -18.5 -120.5t-53.5 -94.5q-33 -35 -79 -50t-109 -15t-109 15t-79 50q-35 38 -53.5 94.5t-18.5 120.5t18.5 120.5t53.5 94.5q33 35 79 50t109 15t109 -15t79 -50q35 -38 53.5 -94.5t18.5 -120.5zM206 97q27 -40 91 -40t91 40q32 49 32 173t-32 173
q-27 40 -91 40t-91 -40q-32 -49 -32 -173t32 -173zM109 690q0 35 19.5 54.5t53.5 19.5t54 -20t20 -54t-19.5 -53.5t-54.5 -19.5q-34 0 -53.5 19.5t-19.5 53.5zM339 690q0 35 19.5 54.5t53.5 19.5t54 -20t20 -54t-19.5 -53.5t-54.5 -19.5q-34 0 -53.5 19.5t-19.5 53.5z" />
    <glyph glyph-name="udieresis" unicode="&#xfc;" horiz-adv-x="652" 
d="M218 272q0 -32 0.5 -55.5t2 -41t4 -29.5t5.5 -21q8 -24 26.5 -36.5t37.5 -12.5q27 0 49 10t41 27q22 20 32.5 46.5t12.5 68.5v237l-87 19v56h214v-465l77 -19v-56l-185 -10l-11 110h-4q-29 -51 -79 -80.5t-107 -29.5q-38 0 -69.5 14t-49.5 40q-20 28 -28.5 78.5
t-8.5 136.5v206l-67 19v56h194v-268zM133 690q0 35 19.5 54.5t53.5 19.5t54 -20t20 -54t-19.5 -53.5t-54.5 -19.5q-34 0 -53.5 19.5t-19.5 53.5zM363 690q0 35 19.5 54.5t53.5 19.5t54 -20t20 -54t-19.5 -53.5t-54.5 -19.5q-34 0 -53.5 19.5t-19.5 53.5z" />
    <glyph glyph-name="wdieresis" unicode="&#x1e85;" horiz-adv-x="888" 
d="M278 150l10 -59h5l11 59l104 400h102l107 -399l10 -59h4l12 59l81 313l-65 19v56h220v-56l-54 -19l-144 -474h-133l-104 361l-101 -361h-133l-149 474l-53 19v56h254v-56l-69 -19zM271 690q0 35 19.5 54.5t53.5 19.5t54 -20t20 -54t-19.5 -53.5t-54.5 -19.5
q-34 0 -53.5 19.5t-19.5 53.5zM501 690q0 35 19.5 54.5t53.5 19.5t54 -20t20 -54t-19.5 -53.5t-54.5 -19.5q-34 0 -53.5 19.5t-19.5 53.5z" />
    <glyph glyph-name="ydieresis" unicode="&#xff;" horiz-adv-x="600" 
d="M368 24q-25 -58 -45.5 -99t-43 -66.5t-49.5 -37t-66 -11.5q-24 0 -44.5 6.5t-36 18.5t-24.5 28t-9 35q0 35 20.5 57.5t53.5 22.5q29 0 44.5 -13t15.5 -39q0 -5 -2.5 -12.5t-8 -15t-14.5 -12.5t-21 -5q2 -10 11.5 -13.5t17.5 -3.5q10 0 19.5 2.5t19 12t20 28t22.5 49.5
l12 37l-201 472l-60 19v56h254l8 -56l-71 -19l123 -347h4l111 347l-58 19v56h220v-56l-61 -19zM130 690q0 35 19.5 54.5t53.5 19.5t54 -20t20 -54t-19.5 -53.5t-54.5 -19.5q-34 0 -53.5 19.5t-19.5 53.5zM360 690q0 35 19.5 54.5t53.5 19.5t54 -20t20 -54t-19.5 -53.5
t-54.5 -19.5q-34 0 -53.5 19.5t-19.5 53.5z" />
    <glyph glyph-name="idieresis" unicode="&#xef;" horiz-adv-x="331" 
d="M31 484v56h204v-465l77 -19v-56h-281v56l77 19v390zM-17 690q0 35 19.5 54.5t53.5 19.5t54 -20t20 -54t-19.5 -53.5t-54.5 -19.5q-34 0 -53.5 19.5t-19.5 53.5zM213 690q0 35 19.5 54.5t53.5 19.5t54 -20t20 -54t-19.5 -53.5t-54.5 -19.5q-34 0 -53.5 19.5t-19.5 53.5z
" />
    <glyph glyph-name="aacute" unicode="&#xe1;" horiz-adv-x="549" 
d="M30 118q0 41 18.5 72.5t57 55.5t98 41t141.5 30q-5 50 -11.5 76.5t-17.5 46.5q-14 23 -32.5 37t-47.5 14q-21 0 -38.5 -8t-23.5 -22q14 -8 19.5 -22.5t5.5 -25.5q0 -25 -22 -44.5t-53 -19.5q-32 0 -49.5 20.5t-17.5 51.5t17 55t45 40.5t62.5 25t69.5 8.5q47 0 84.5 -13.5
t60.5 -33.5q79 -70 79 -222v-130q0 -50 6.5 -68.5t28.5 -18.5h45v-45q-92 -29 -139 -29q-17 0 -27.5 5t-16.5 17t-8.5 33t-2.5 54h-4q-31 -51 -82 -80t-110 -29q-63 0 -99 34t-36 94zM226 63q21 0 46.5 13.5t44.5 39.5q11 14 21 40t10 62q0 12 -1 26.5t-3 28.5
q-52 -11 -86.5 -23.5t-55.5 -27.5t-30 -34.5t-9 -44.5q0 -44 20 -62t43 -18zM258 715q15 24 27.5 39.5t23.5 24.5t23 13t26 4q32 0 44 -12.5t12 -29.5q0 -15 -18 -33.5t-66 -53.5l-38 -28h-83z" />
    <glyph glyph-name="cacute" unicode="&#x107;" horiz-adv-x="546" 
d="M300 550q46 0 85 -11t67.5 -31.5t44.5 -49.5t16 -64q0 -45 -24 -68.5t-59 -23.5q-20 0 -33 6.5t-21.5 17t-12 23.5t-3.5 26q0 25 12.5 43t37.5 26q-14 18 -42 29t-63 11q-32 0 -56.5 -11t-41.5 -35.5t-26 -65t-9 -99.5q0 -54 7 -85t19 -54q16 -29 41 -45.5t64 -16.5
q20 0 42.5 5t44 14.5t41 24.5t34.5 36l54 -42q-47 -65 -108.5 -92.5t-131.5 -27.5q-75 0 -126 28.5t-80 83.5q-17 32 -26.5 73.5t-9.5 89.5q0 65 18 117.5t51.5 90t82.5 57.5t111 20zM315 715q15 24 27.5 39.5t23.5 24.5t23 13t26 4q32 0 44 -12.5t12 -29.5q0 -15 -18 -33.5
t-66 -53.5l-38 -28h-83z" />
    <glyph glyph-name="eacute" unicode="&#xe9;" horiz-adv-x="556" 
d="M169 256q0 -68 20 -113q32 -71 110 -71q45 0 88 19.5t74 60.5l54 -42q-35 -50 -94.5 -85t-146.5 -35q-74 0 -126.5 29.5t-80.5 86.5q-15 31 -22 68.5t-7 82.5q0 140 64 216.5t183 76.5q54 0 98 -16.5t74.5 -47t47 -75t16.5 -100.5q0 -11 -0.5 -21.5t-2.5 -33.5h-349z
M283 481q-103 0 -113 -161h220v26q0 65 -28 100t-79 35zM283 715q15 24 27.5 39.5t23.5 24.5t23 13t26 4q32 0 44 -12.5t12 -29.5q0 -15 -18 -33.5t-66 -53.5l-38 -28h-83z" />
    <glyph glyph-name="nacute" unicode="&#x144;" horiz-adv-x="674" 
d="M108 465l-77 19v56h174l22 -100h4q30 51 80.5 80.5t109.5 29.5q40 0 72 -14t51 -40q20 -28 28.5 -78.5t8.5 -136.5v-206l77 -19v-56h-271v56l67 19v193q0 60 -3.5 93.5t-12.5 53.5q-11 26 -30 36t-45 10q-49 0 -83 -32q-41 -38 -45 -117v-237l67 -19v-56h-271v56l77 19
v390zM339 715q15 24 27.5 39.5t23.5 24.5t23 13t26 4q32 0 44 -12.5t12 -29.5q0 -15 -18 -33.5t-66 -53.5l-38 -28h-83z" />
    <glyph glyph-name="oacute" unicode="&#xf3;" horiz-adv-x="594" 
d="M557 270q0 -64 -18.5 -120.5t-53.5 -94.5q-33 -35 -79 -50t-109 -15t-109 15t-79 50q-35 38 -53.5 94.5t-18.5 120.5t18.5 120.5t53.5 94.5q33 35 79 50t109 15t109 -15t79 -50q35 -38 53.5 -94.5t18.5 -120.5zM206 97q27 -40 91 -40t91 40q32 49 32 173t-32 173
q-27 40 -91 40t-91 -40q-32 -49 -32 -173t32 -173zM304 715q15 24 27.5 39.5t23.5 24.5t23 13t26 4q32 0 44 -12.5t12 -29.5q0 -15 -18 -33.5t-66 -53.5l-38 -28h-83z" />
    <glyph glyph-name="racute" unicode="&#x155;" horiz-adv-x="474" 
d="M330 467q-9 0 -19 -8t-19.5 -20t-17 -25.5t-11.5 -23.5q-12 -35 -21 -70.5t-9 -87.5v-157l108 -19v-56h-312v56l77 19v405l-77 19v41h174l22 -132h4q23 69 61.5 105.5t86.5 36.5q39 0 65 -24.5t26 -65.5q0 -30 -18 -54.5t-51 -24.5q-41 0 -57.5 18.5t-16.5 40.5
q0 7 1 11.5t4 15.5zM259 715q15 24 27.5 39.5t23.5 24.5t23 13t26 4q32 0 44 -12.5t12 -29.5q0 -15 -18 -33.5t-66 -53.5l-38 -28h-83z" />
    <glyph glyph-name="sacute" unicode="&#x15b;" horiz-adv-x="516" 
d="M243 51q25 0 47 5t38.5 14t26 22.5t9.5 30.5q0 20 -12.5 35t-33 26t-46 19.5l-50.5 16.5q-31 9 -60.5 22.5t-53 34t-37.5 48.5t-14 66q0 72 52 115.5t149 43.5q46 0 83 -10t63 -28.5t40.5 -44t14.5 -55.5q0 -35 -18.5 -53t-50.5 -18t-50 15.5t-18 36.5q0 17 10 32.5
t26 23.5q-14 19 -37.5 29.5t-58.5 10.5q-47 0 -70 -19.5t-23 -54.5q0 -40 26 -59.5t70 -32.5q40 -12 79 -25t69.5 -32t49 -46.5t18.5 -66.5t-18.5 -69.5t-51 -51t-76.5 -31.5t-95 -11q-96 0 -149.5 35t-53.5 95q0 41 23 64t55 23q24 0 44.5 -13.5t20.5 -38.5q0 -18 -11 -35
t-25 -25q10 -16 33 -30t66 -14zM277 715q15 24 27.5 39.5t23.5 24.5t23 13t26 4q32 0 44 -12.5t12 -29.5q0 -15 -18 -33.5t-66 -53.5l-38 -28h-83z" />
    <glyph glyph-name="uacute" unicode="&#xfa;" horiz-adv-x="652" 
d="M218 272q0 -32 0.5 -55.5t2 -41t4 -29.5t5.5 -21q8 -24 26.5 -36.5t37.5 -12.5q27 0 49 10t41 27q22 20 32.5 46.5t12.5 68.5v237l-87 19v56h214v-465l77 -19v-56l-185 -10l-11 110h-4q-29 -51 -79 -80.5t-107 -29.5q-38 0 -69.5 14t-49.5 40q-20 28 -28.5 78.5
t-8.5 136.5v206l-67 19v56h194v-268zM328 715q15 24 27.5 39.5t23.5 24.5t23 13t26 4q32 0 44 -12.5t12 -29.5q0 -15 -18 -33.5t-66 -53.5l-38 -28h-83z" />
    <glyph glyph-name="wacute" unicode="&#x1e83;" horiz-adv-x="888" 
d="M278 150l10 -59h5l11 59l104 400h102l107 -399l10 -59h4l12 59l81 313l-65 19v56h220v-56l-54 -19l-144 -474h-133l-104 361l-101 -361h-133l-149 474l-53 19v56h254v-56l-69 -19zM466 715q15 24 27.5 39.5t23.5 24.5t23 13t26 4q32 0 44 -12.5t12 -29.5q0 -15 -18 -33.5
t-66 -53.5l-38 -28h-83z" />
    <glyph glyph-name="yacute" unicode="&#xfd;" horiz-adv-x="600" 
d="M368 24q-25 -58 -45.5 -99t-43 -66.5t-49.5 -37t-66 -11.5q-24 0 -44.5 6.5t-36 18.5t-24.5 28t-9 35q0 35 20.5 57.5t53.5 22.5q29 0 44.5 -13t15.5 -39q0 -5 -2.5 -12.5t-8 -15t-14.5 -12.5t-21 -5q2 -10 11.5 -13.5t17.5 -3.5q10 0 19.5 2.5t19 12t20 28t22.5 49.5
l12 37l-201 472l-60 19v56h254l8 -56l-71 -19l123 -347h4l111 347l-58 19v56h220v-56l-61 -19zM297 715q15 24 27.5 39.5t23.5 24.5t23 13t26 4q32 0 44 -12.5t12 -29.5q0 -15 -18 -33.5t-66 -53.5l-38 -28h-83z" />
    <glyph glyph-name="zacute" unicode="&#x17a;" horiz-adv-x="558" 
d="M425 207h87v-207h-473v71l313 398h-189l-24 -131h-87v202h456v-71l-312 -398h209zM287 715q15 24 27.5 39.5t23.5 24.5t23 13t26 4q32 0 44 -12.5t12 -29.5q0 -15 -18 -33.5t-66 -53.5l-38 -28h-83z" />
    <glyph glyph-name="iacute" unicode="&#xed;" horiz-adv-x="331" 
d="M31 484v56h204v-465l77 -19v-56h-281v56l77 19v390zM178 715q15 24 27.5 39.5t23.5 24.5t23 13t26 4q32 0 44 -12.5t12 -29.5q0 -15 -18 -33.5t-66 -53.5l-38 -28h-83z" />
    <glyph glyph-name="agrave" unicode="&#xe0;" horiz-adv-x="549" 
d="M30 118q0 41 18.5 72.5t57 55.5t98 41t141.5 30q-5 50 -11.5 76.5t-17.5 46.5q-14 23 -32.5 37t-47.5 14q-21 0 -38.5 -8t-23.5 -22q14 -8 19.5 -22.5t5.5 -25.5q0 -25 -22 -44.5t-53 -19.5q-32 0 -49.5 20.5t-17.5 51.5t17 55t45 40.5t62.5 25t69.5 8.5q47 0 84.5 -13.5
t60.5 -33.5q79 -70 79 -222v-130q0 -50 6.5 -68.5t28.5 -18.5h45v-45q-92 -29 -139 -29q-17 0 -27.5 5t-16.5 17t-8.5 33t-2.5 54h-4q-31 -51 -82 -80t-110 -29q-63 0 -99 34t-36 94zM226 63q21 0 46.5 13.5t44.5 39.5q11 14 21 40t10 62q0 12 -1 26.5t-3 28.5
q-52 -11 -86.5 -23.5t-55.5 -27.5t-30 -34.5t-9 -44.5q0 -44 20 -62t43 -18zM326 639h-83l-38 28q-48 35 -66 53.5t-18 33.5q0 17 12 29.5t44 12.5q14 0 26 -4t23 -13t23.5 -24.5t27.5 -39.5z" />
    <glyph glyph-name="egrave" unicode="&#xe8;" horiz-adv-x="556" 
d="M169 256q0 -68 20 -113q32 -71 110 -71q45 0 88 19.5t74 60.5l54 -42q-35 -50 -94.5 -85t-146.5 -35q-74 0 -126.5 29.5t-80.5 86.5q-15 31 -22 68.5t-7 82.5q0 140 64 216.5t183 76.5q54 0 98 -16.5t74.5 -47t47 -75t16.5 -100.5q0 -11 -0.5 -21.5t-2.5 -33.5h-349z
M283 481q-103 0 -113 -161h220v26q0 65 -28 100t-79 35zM346 639h-83l-38 28q-48 35 -66 53.5t-18 33.5q0 17 12 29.5t44 12.5q14 0 26 -4t23 -13t23.5 -24.5t27.5 -39.5z" />
    <glyph glyph-name="ograve" unicode="&#xf2;" horiz-adv-x="594" 
d="M557 270q0 -64 -18.5 -120.5t-53.5 -94.5q-33 -35 -79 -50t-109 -15t-109 15t-79 50q-35 38 -53.5 94.5t-18.5 120.5t18.5 120.5t53.5 94.5q33 35 79 50t109 15t109 -15t79 -50q35 -38 53.5 -94.5t18.5 -120.5zM206 97q27 -40 91 -40t91 40q32 49 32 173t-32 173
q-27 40 -91 40t-91 -40q-32 -49 -32 -173t32 -173zM340 639h-83l-38 28q-48 35 -66 53.5t-18 33.5q0 17 12 29.5t44 12.5q14 0 26 -4t23 -13t23.5 -24.5t27.5 -39.5z" />
    <glyph glyph-name="ugrave" unicode="&#xf9;" horiz-adv-x="652" 
d="M218 272q0 -32 0.5 -55.5t2 -41t4 -29.5t5.5 -21q8 -24 26.5 -36.5t37.5 -12.5q27 0 49 10t41 27q22 20 32.5 46.5t12.5 68.5v237l-87 19v56h214v-465l77 -19v-56l-185 -10l-11 110h-4q-29 -51 -79 -80.5t-107 -29.5q-38 0 -69.5 14t-49.5 40q-20 28 -28.5 78.5
t-8.5 136.5v206l-67 19v56h194v-268zM364 639h-83l-38 28q-48 35 -66 53.5t-18 33.5q0 17 12 29.5t44 12.5q14 0 26 -4t23 -13t23.5 -24.5t27.5 -39.5z" />
    <glyph glyph-name="wgrave" unicode="&#x1e81;" horiz-adv-x="888" 
d="M278 150l10 -59h5l11 59l104 400h102l107 -399l10 -59h4l12 59l81 313l-65 19v56h220v-56l-54 -19l-144 -474h-133l-104 361l-101 -361h-133l-149 474l-53 19v56h254v-56l-69 -19zM518 639h-83l-38 28q-48 35 -66 53.5t-18 33.5q0 17 12 29.5t44 12.5q14 0 26 -4t23 -13
t23.5 -24.5t27.5 -39.5z" />
    <glyph glyph-name="ygrave" unicode="&#x1ef3;" horiz-adv-x="600" 
d="M368 24q-25 -58 -45.5 -99t-43 -66.5t-49.5 -37t-66 -11.5q-24 0 -44.5 6.5t-36 18.5t-24.5 28t-9 35q0 35 20.5 57.5t53.5 22.5q29 0 44.5 -13t15.5 -39q0 -5 -2.5 -12.5t-8 -15t-14.5 -12.5t-21 -5q2 -10 11.5 -13.5t17.5 -3.5q10 0 19.5 2.5t19 12t20 28t22.5 49.5
l12 37l-201 472l-60 19v56h254l8 -56l-71 -19l123 -347h4l111 347l-58 19v56h220v-56l-61 -19zM383 639h-83l-38 28q-48 35 -66 53.5t-18 33.5q0 17 12 29.5t44 12.5q14 0 26 -4t23 -13t23.5 -24.5t27.5 -39.5z" />
    <glyph glyph-name="igrave" unicode="&#xec;" horiz-adv-x="331" 
d="M31 484v56h204v-465l77 -19v-56h-281v56l77 19v390zM214 639h-83l-38 28q-48 35 -66 53.5t-18 33.5q0 17 12 29.5t44 12.5q14 0 26 -4t23 -13t23.5 -24.5t27.5 -39.5z" />
    <glyph glyph-name="ohungarumlaut" unicode="&#x151;" horiz-adv-x="594" 
d="M557 270q0 -64 -18.5 -120.5t-53.5 -94.5q-33 -35 -79 -50t-109 -15t-109 15t-79 50q-35 38 -53.5 94.5t-18.5 120.5t18.5 120.5t53.5 94.5q33 35 79 50t109 15t109 -15t79 -50q35 -38 53.5 -94.5t18.5 -120.5zM206 97q27 -40 91 -40t91 40q32 49 32 173t-32 173
q-27 40 -91 40t-91 -40q-32 -49 -32 -173t32 -173zM202 715q15 24 27.5 39.5t23.5 24.5t23 13t26 4q32 0 44 -12.5t12 -29.5q0 -15 -18 -33.5t-66 -53.5l-38 -28h-83zM397 715q15 24 27.5 39.5t23.5 24.5t23 13t26 4q32 0 44 -12.5t12 -29.5q0 -15 -18 -33.5t-66 -53.5
l-38 -28h-83z" />
    <glyph glyph-name="uhungarumlaut" unicode="&#x171;" horiz-adv-x="652" 
d="M218 272q0 -32 0.5 -55.5t2 -41t4 -29.5t5.5 -21q8 -24 26.5 -36.5t37.5 -12.5q27 0 49 10t41 27q22 20 32.5 46.5t12.5 68.5v237l-87 19v56h214v-465l77 -19v-56l-185 -10l-11 110h-4q-29 -51 -79 -80.5t-107 -29.5q-38 0 -69.5 14t-49.5 40q-20 28 -28.5 78.5
t-8.5 136.5v206l-67 19v56h194v-268zM226 715q15 24 27.5 39.5t23.5 24.5t23 13t26 4q32 0 44 -12.5t12 -29.5q0 -15 -18 -33.5t-66 -53.5l-38 -28h-83zM421 715q15 24 27.5 39.5t23.5 24.5t23 13t26 4q32 0 44 -12.5t12 -29.5q0 -15 -18 -33.5t-66 -53.5l-38 -28h-83z" />
    <glyph glyph-name="atilde" unicode="&#xe3;" horiz-adv-x="549" 
d="M30 118q0 41 18.5 72.5t57 55.5t98 41t141.5 30q-5 50 -11.5 76.5t-17.5 46.5q-14 23 -32.5 37t-47.5 14q-21 0 -38.5 -8t-23.5 -22q14 -8 19.5 -22.5t5.5 -25.5q0 -25 -22 -44.5t-53 -19.5q-32 0 -49.5 20.5t-17.5 51.5t17 55t45 40.5t62.5 25t69.5 8.5q47 0 84.5 -13.5
t60.5 -33.5q79 -70 79 -222v-130q0 -50 6.5 -68.5t28.5 -18.5h45v-45q-92 -29 -139 -29q-17 0 -27.5 5t-16.5 17t-8.5 33t-2.5 54h-4q-31 -51 -82 -80t-110 -29q-63 0 -99 34t-36 94zM226 63q21 0 46.5 13.5t44.5 39.5q11 14 21 40t10 62q0 12 -1 26.5t-3 28.5
q-52 -11 -86.5 -23.5t-55.5 -27.5t-30 -34.5t-9 -44.5q0 -44 20 -62t43 -18zM52 624q2 73 37 109t90 36q25 0 44 -8.5t35 -19t31.5 -19t35.5 -8.5q30 0 45 13t20 37h60q-21 -151 -127 -151q-25 0 -43.5 8.5t-35 19t-32.5 19.5t-35 9q-30 0 -45 -12t-20 -33h-60z" />
    <glyph glyph-name="etilde" unicode="&#x1ebd;" horiz-adv-x="556" 
d="M169 256q0 -68 20 -113q32 -71 110 -71q45 0 88 19.5t74 60.5l54 -42q-35 -50 -94.5 -85t-146.5 -35q-74 0 -126.5 29.5t-80.5 86.5q-15 31 -22 68.5t-7 82.5q0 140 64 216.5t183 76.5q54 0 98 -16.5t74.5 -47t47 -75t16.5 -100.5q0 -11 -0.5 -21.5t-2.5 -33.5h-349z
M283 481q-103 0 -113 -161h220v26q0 65 -28 100t-79 35zM77 624q2 73 37 109t90 36q25 0 44 -8.5t35 -19t31.5 -19t35.5 -8.5q30 0 45 13t20 37h60q-21 -151 -127 -151q-25 0 -43.5 8.5t-35 19t-32.5 19.5t-35 9q-30 0 -45 -12t-20 -33h-60z" />
    <glyph glyph-name="ntilde" unicode="&#xf1;" horiz-adv-x="674" 
d="M108 465l-77 19v56h174l22 -100h4q30 51 80.5 80.5t109.5 29.5q40 0 72 -14t51 -40q20 -28 28.5 -78.5t8.5 -136.5v-206l77 -19v-56h-271v56l67 19v193q0 60 -3.5 93.5t-12.5 53.5q-11 26 -30 36t-45 10q-49 0 -83 -32q-41 -38 -45 -117v-237l67 -19v-56h-271v56l77 19
v390zM158 624q2 73 37 109t90 36q25 0 44 -8.5t35 -19t31.5 -19t35.5 -8.5q30 0 45 13t20 37h60q-21 -151 -127 -151q-25 0 -43.5 8.5t-35 19t-32.5 19.5t-35 9q-30 0 -45 -12t-20 -33h-60z" />
    <glyph glyph-name="otilde" unicode="&#xf5;" horiz-adv-x="594" 
d="M557 270q0 -64 -18.5 -120.5t-53.5 -94.5q-33 -35 -79 -50t-109 -15t-109 15t-79 50q-35 38 -53.5 94.5t-18.5 120.5t18.5 120.5t53.5 94.5q33 35 79 50t109 15t109 -15t79 -50q35 -38 53.5 -94.5t18.5 -120.5zM206 97q27 -40 91 -40t91 40q32 49 32 173t-32 173
q-27 40 -91 40t-91 -40q-32 -49 -32 -173t32 -173zM98 624q2 73 37 109t90 36q25 0 44 -8.5t35 -19t31.5 -19t35.5 -8.5q30 0 45 13t20 37h60q-21 -151 -127 -151q-25 0 -43.5 8.5t-35 19t-32.5 19.5t-35 9q-30 0 -45 -12t-20 -33h-60z" />
    <glyph glyph-name="utilde" unicode="&#x169;" horiz-adv-x="652" 
d="M218 272q0 -32 0.5 -55.5t2 -41t4 -29.5t5.5 -21q8 -24 26.5 -36.5t37.5 -12.5q27 0 49 10t41 27q22 20 32.5 46.5t12.5 68.5v237l-87 19v56h214v-465l77 -19v-56l-185 -10l-11 110h-4q-29 -51 -79 -80.5t-107 -29.5q-38 0 -69.5 14t-49.5 40q-20 28 -28.5 78.5
t-8.5 136.5v206l-67 19v56h194v-268zM122 624q2 73 37 109t90 36q25 0 44 -8.5t35 -19t31.5 -19t35.5 -8.5q30 0 45 13t20 37h60q-21 -151 -127 -151q-25 0 -43.5 8.5t-35 19t-32.5 19.5t-35 9q-30 0 -45 -12t-20 -33h-60z" />
    <glyph glyph-name="ytilde" unicode="&#x1ef9;" horiz-adv-x="600" 
d="M368 24q-25 -58 -45.5 -99t-43 -66.5t-49.5 -37t-66 -11.5q-24 0 -44.5 6.5t-36 18.5t-24.5 28t-9 35q0 35 20.5 57.5t53.5 22.5q29 0 44.5 -13t15.5 -39q0 -5 -2.5 -12.5t-8 -15t-14.5 -12.5t-21 -5q2 -10 11.5 -13.5t17.5 -3.5q10 0 19.5 2.5t19 12t20 28t22.5 49.5
l12 37l-201 472l-60 19v56h254l8 -56l-71 -19l123 -347h4l111 347l-58 19v56h220v-56l-61 -19zM119 624q2 73 37 109t90 36q25 0 44 -8.5t35 -19t31.5 -19t35.5 -8.5q30 0 45 13t20 37h60q-21 -151 -127 -151q-25 0 -43.5 8.5t-35 19t-32.5 19.5t-35 9q-30 0 -45 -12
t-20 -33h-60z" />
    <glyph glyph-name="itilde" unicode="&#x129;" horiz-adv-x="331" 
d="M31 484v56h204v-465l77 -19v-56h-281v56l77 19v390zM-28 624q2 73 37 109t90 36q25 0 44 -8.5t35 -19t31.5 -19t35.5 -8.5q30 0 45 13t20 37h60q-21 -151 -127 -151q-25 0 -43.5 8.5t-35 19t-32.5 19.5t-35 9q-30 0 -45 -12t-20 -33h-60z" />
    <glyph glyph-name="circumflex" unicode="&#x2c6;" horiz-adv-x="352" 
d="M327 639h-83l-68 76l-68 -76h-83l88 151h125z" />
    <glyph glyph-name="caron" unicode="&#x2c7;" horiz-adv-x="352" 
d="M238 629h-125l-88 151h83l68 -76l68 76h83z" />
    <glyph glyph-name="acircumflex" unicode="&#xe2;" horiz-adv-x="549" 
d="M30 118q0 41 18.5 72.5t57 55.5t98 41t141.5 30q-5 50 -11.5 76.5t-17.5 46.5q-14 23 -32.5 37t-47.5 14q-21 0 -38.5 -8t-23.5 -22q14 -8 19.5 -22.5t5.5 -25.5q0 -25 -22 -44.5t-53 -19.5q-32 0 -49.5 20.5t-17.5 51.5t17 55t45 40.5t62.5 25t69.5 8.5q47 0 84.5 -13.5
t60.5 -33.5q79 -70 79 -222v-130q0 -50 6.5 -68.5t28.5 -18.5h45v-45q-92 -29 -139 -29q-17 0 -27.5 5t-16.5 17t-8.5 33t-2.5 54h-4q-31 -51 -82 -80t-110 -29q-63 0 -99 34t-36 94zM226 63q21 0 46.5 13.5t44.5 39.5q11 14 21 40t10 62q0 12 -1 26.5t-3 28.5
q-52 -11 -86.5 -23.5t-55.5 -27.5t-30 -34.5t-9 -44.5q0 -44 20 -62t43 -18zM412 639h-83l-68 76l-68 -76h-83l88 151h125z" />
    <glyph glyph-name="ccircumflex" unicode="&#x109;" horiz-adv-x="546" 
d="M300 550q46 0 85 -11t67.5 -31.5t44.5 -49.5t16 -64q0 -45 -24 -68.5t-59 -23.5q-20 0 -33 6.5t-21.5 17t-12 23.5t-3.5 26q0 25 12.5 43t37.5 26q-14 18 -42 29t-63 11q-32 0 -56.5 -11t-41.5 -35.5t-26 -65t-9 -99.5q0 -54 7 -85t19 -54q16 -29 41 -45.5t64 -16.5
q20 0 42.5 5t44 14.5t41 24.5t34.5 36l54 -42q-47 -65 -108.5 -92.5t-131.5 -27.5q-75 0 -126 28.5t-80 83.5q-17 32 -26.5 73.5t-9.5 89.5q0 65 18 117.5t51.5 90t82.5 57.5t111 20zM459 639h-83l-68 76l-68 -76h-83l88 151h125z" />
    <glyph glyph-name="ecircumflex" unicode="&#xea;" horiz-adv-x="556" 
d="M169 256q0 -68 20 -113q32 -71 110 -71q45 0 88 19.5t74 60.5l54 -42q-35 -50 -94.5 -85t-146.5 -35q-74 0 -126.5 29.5t-80.5 86.5q-15 31 -22 68.5t-7 82.5q0 140 64 216.5t183 76.5q54 0 98 -16.5t74.5 -47t47 -75t16.5 -100.5q0 -11 -0.5 -21.5t-2.5 -33.5h-349z
M283 481q-103 0 -113 -161h220v26q0 65 -28 100t-79 35zM436 639h-83l-68 76l-68 -76h-83l88 151h125z" />
    <glyph glyph-name="hcircumflex" unicode="&#x125;" horiz-adv-x="658" 
d="M522 639h-83l-68 76l-68 -76h-80v-193q26 48 68.5 76t93.5 28q43 0 72.5 -10.5t51.5 -33.5q31 -32 45.5 -85.5t14.5 -139.5v-206l77 -19v-56h-271v56l67 19v193q0 32 -1 55.5t-2.5 41t-5 29.5t-7.5 21q-25 49 -88 49q-28 0 -54 -14t-41 -40q-8 -14 -14 -37t-6 -57v-241
l67 -19v-56h-271v56l77 19v630l-77 19v56h204v-136l85 146h125z" />
    <glyph glyph-name="ocircumflex" unicode="&#xf4;" horiz-adv-x="594" 
d="M557 270q0 -64 -18.5 -120.5t-53.5 -94.5q-33 -35 -79 -50t-109 -15t-109 15t-79 50q-35 38 -53.5 94.5t-18.5 120.5t18.5 120.5t53.5 94.5q33 35 79 50t109 15t109 -15t79 -50q35 -38 53.5 -94.5t18.5 -120.5zM206 97q27 -40 91 -40t91 40q32 49 32 173t-32 173
q-27 40 -91 40t-91 -40q-32 -49 -32 -173t32 -173zM448 639h-83l-68 76l-68 -76h-83l88 151h125z" />
    <glyph glyph-name="scircumflex" unicode="&#x15d;" horiz-adv-x="516" 
d="M243 51q25 0 47 5t38.5 14t26 22.5t9.5 30.5q0 20 -12.5 35t-33 26t-46 19.5l-50.5 16.5q-31 9 -60.5 22.5t-53 34t-37.5 48.5t-14 66q0 72 52 115.5t149 43.5q46 0 83 -10t63 -28.5t40.5 -44t14.5 -55.5q0 -35 -18.5 -53t-50.5 -18t-50 15.5t-18 36.5q0 17 10 32.5
t26 23.5q-14 19 -37.5 29.5t-58.5 10.5q-47 0 -70 -19.5t-23 -54.5q0 -40 26 -59.5t70 -32.5q40 -12 79 -25t69.5 -32t49 -46.5t18.5 -66.5t-18.5 -69.5t-51 -51t-76.5 -31.5t-95 -11q-96 0 -149.5 35t-53.5 95q0 41 23 64t55 23q24 0 44.5 -13.5t20.5 -38.5q0 -18 -11 -35
t-25 -25q10 -16 33 -30t66 -14zM421 639h-83l-68 76l-68 -76h-83l88 151h125z" />
    <glyph glyph-name="ucircumflex" unicode="&#xfb;" horiz-adv-x="652" 
d="M218 272q0 -32 0.5 -55.5t2 -41t4 -29.5t5.5 -21q8 -24 26.5 -36.5t37.5 -12.5q27 0 49 10t41 27q22 20 32.5 46.5t12.5 68.5v237l-87 19v56h214v-465l77 -19v-56l-185 -10l-11 110h-4q-29 -51 -79 -80.5t-107 -29.5q-38 0 -69.5 14t-49.5 40q-20 28 -28.5 78.5
t-8.5 136.5v206l-67 19v56h194v-268zM472 639h-83l-68 76l-68 -76h-83l88 151h125z" />
    <glyph glyph-name="wcircumflex" unicode="&#x175;" horiz-adv-x="888" 
d="M278 150l10 -59h5l11 59l104 400h102l107 -399l10 -59h4l12 59l81 313l-65 19v56h220v-56l-54 -19l-144 -474h-133l-104 361l-101 -361h-133l-149 474l-53 19v56h254v-56l-69 -19zM610 639h-83l-68 76l-68 -76h-83l88 151h125z" />
    <glyph glyph-name="ycircumflex" unicode="&#x177;" horiz-adv-x="600" 
d="M368 24q-25 -58 -45.5 -99t-43 -66.5t-49.5 -37t-66 -11.5q-24 0 -44.5 6.5t-36 18.5t-24.5 28t-9 35q0 35 20.5 57.5t53.5 22.5q29 0 44.5 -13t15.5 -39q0 -5 -2.5 -12.5t-8 -15t-14.5 -12.5t-21 -5q2 -10 11.5 -13.5t17.5 -3.5q10 0 19.5 2.5t19 12t20 28t22.5 49.5
l12 37l-201 472l-60 19v56h254l8 -56l-71 -19l123 -347h4l111 347l-58 19v56h220v-56l-61 -19zM469 639h-83l-68 76l-68 -76h-83l88 151h125z" />
    <glyph glyph-name="gcircumflex" unicode="&#x11d;" horiz-adv-x="575" 
d="M528 -6q0 -92 -66 -135t-210 -43q-48 0 -90 6.5t-73.5 21.5t-49.5 39t-18 59q0 46 29 74t86 30v4q-76 21 -76 76q0 15 5.5 31.5t18 31t32 25.5t47.5 15q-54 13 -83.5 53.5t-29.5 95.5q0 80 53.5 126t155.5 46q33 0 58.5 -3t46 -9t36.5 -14.5t31 -19.5l34 12l92 44h17
v-103h-17l-70 8h-25q20 -31 20 -81q0 -82 -50.5 -129.5t-147.5 -47.5q-11 0 -20.5 0.5t-19.5 1.5q-39 -5 -62.5 -17.5t-23.5 -35.5q0 -18 18.5 -24.5t69.5 -6.5h116q166 0 166 -131zM253 33q-67 0 -97 -21t-30 -55q0 -76 143 -76q77 0 117 22t40 66q0 35 -31 49.5t-107 14.5
h-35zM168 382q0 -57 24 -86t69 -29q54 0 78.5 29t24.5 86q0 53 -24.5 80t-78.5 27q-45 0 -69 -27t-24 -80zM418 639h-83l-68 76l-68 -76h-83l88 151h125z" />
    <glyph glyph-name="icircumflex" unicode="&#xee;" horiz-adv-x="331" 
d="M31 484v56h204v-465l77 -19v-56h-281v56l77 19v390zM322 639h-83l-68 76l-68 -76h-83l88 151h125z" />
    <glyph glyph-name="jcircumflex" unicode="&#x135;" horiz-adv-x="300" 
d="M225 85q0 -74 -5 -116.5t-17 -69.5q-19 -43 -54.5 -66t-89.5 -23q-26 0 -52 6t-47.5 18t-35 30.5t-13.5 44.5q0 29 17.5 48.5t51.5 19.5q28 0 45.5 -14.5t17.5 -43.5q0 -12 -4 -23t-12 -19q2 -9 10.5 -12.5t16.5 -3.5q16 0 25 12.5t13.5 30t5 37.5t0.5 35v489l-77 19v56
h204v-455zM312 639h-83l-68 76l-68 -76h-83l88 151h125z" />
    <glyph glyph-name="ccaron" unicode="&#x10d;" horiz-adv-x="546" 
d="M300 550q46 0 85 -11t67.5 -31.5t44.5 -49.5t16 -64q0 -45 -24 -68.5t-59 -23.5q-20 0 -33 6.5t-21.5 17t-12 23.5t-3.5 26q0 25 12.5 43t37.5 26q-14 18 -42 29t-63 11q-32 0 -56.5 -11t-41.5 -35.5t-26 -65t-9 -99.5q0 -54 7 -85t19 -54q16 -29 41 -45.5t64 -16.5
q20 0 42.5 5t44 14.5t41 24.5t34.5 36l54 -42q-47 -65 -108.5 -92.5t-131.5 -27.5q-75 0 -126 28.5t-80 83.5q-17 32 -26.5 73.5t-9.5 89.5q0 65 18 117.5t51.5 90t82.5 57.5t111 20zM370 629h-125l-88 151h83l68 -76l68 76h83z" />
    <glyph glyph-name="ecaron" unicode="&#x11b;" horiz-adv-x="556" 
d="M169 256q0 -68 20 -113q32 -71 110 -71q45 0 88 19.5t74 60.5l54 -42q-35 -50 -94.5 -85t-146.5 -35q-74 0 -126.5 29.5t-80.5 86.5q-15 31 -22 68.5t-7 82.5q0 140 64 216.5t183 76.5q54 0 98 -16.5t74.5 -47t47 -75t16.5 -100.5q0 -11 -0.5 -21.5t-2.5 -33.5h-349z
M283 481q-103 0 -113 -161h220v26q0 65 -28 100t-79 35zM338 629h-125l-88 151h83l68 -76l68 76h83z" />
    <glyph glyph-name="ncaron" unicode="&#x148;" horiz-adv-x="674" 
d="M108 465l-77 19v56h174l22 -100h4q30 51 80.5 80.5t109.5 29.5q40 0 72 -14t51 -40q20 -28 28.5 -78.5t8.5 -136.5v-206l77 -19v-56h-271v56l67 19v193q0 60 -3.5 93.5t-12.5 53.5q-11 26 -30 36t-45 10q-49 0 -83 -32q-41 -38 -45 -117v-237l67 -19v-56h-271v56l77 19
v390zM419 629h-125l-88 151h83l68 -76l68 76h83z" />
    <glyph glyph-name="rcaron" unicode="&#x159;" horiz-adv-x="474" 
d="M330 467q-9 0 -19 -8t-19.5 -20t-17 -25.5t-11.5 -23.5q-12 -35 -21 -70.5t-9 -87.5v-157l108 -19v-56h-312v56l77 19v405l-77 19v41h174l22 -132h4q23 69 61.5 105.5t86.5 36.5q39 0 65 -24.5t26 -65.5q0 -30 -18 -54.5t-51 -24.5q-41 0 -57.5 18.5t-16.5 40.5
q0 7 1 11.5t4 15.5zM314 629h-125l-88 151h83l68 -76l68 76h83z" />
    <glyph glyph-name="scaron" unicode="&#x161;" horiz-adv-x="516" 
d="M243 51q25 0 47 5t38.5 14t26 22.5t9.5 30.5q0 20 -12.5 35t-33 26t-46 19.5l-50.5 16.5q-31 9 -60.5 22.5t-53 34t-37.5 48.5t-14 66q0 72 52 115.5t149 43.5q46 0 83 -10t63 -28.5t40.5 -44t14.5 -55.5q0 -35 -18.5 -53t-50.5 -18t-50 15.5t-18 36.5q0 17 10 32.5
t26 23.5q-14 19 -37.5 29.5t-58.5 10.5q-47 0 -70 -19.5t-23 -54.5q0 -40 26 -59.5t70 -32.5q40 -12 79 -25t69.5 -32t49 -46.5t18.5 -66.5t-18.5 -69.5t-51 -51t-76.5 -31.5t-95 -11q-96 0 -149.5 35t-53.5 95q0 41 23 64t55 23q24 0 44.5 -13.5t20.5 -38.5q0 -18 -11 -35
t-25 -25q10 -16 33 -30t66 -14zM332 629h-125l-88 151h83l68 -76l68 76h83z" />
    <glyph glyph-name="zcaron" unicode="&#x17e;" horiz-adv-x="558" 
d="M425 207h87v-207h-473v71l313 398h-189l-24 -131h-87v202h456v-71l-312 -398h209zM342 629h-125l-88 151h83l68 -76l68 76h83z" />
    <glyph glyph-name="dotbelow" horiz-adv-x="185" 
d="M15 -129q0 38 21 59.5t57 21.5t57.5 -22t21.5 -58t-21 -57t-59 -21q-36 0 -56.5 20t-20.5 57z" />
    <glyph glyph-name="ddotbelow" unicode="&#x1e0d;" horiz-adv-x="636" 
d="M38 269q0 66 18 123.5t50 92.5q59 65 159 65q47 0 83 -17t65 -61v233l-77 19v56h204v-705l77 -19v-56l-185 -10l-8 82q-31 -47 -70 -64.5t-91 -17.5q-55 0 -92.5 16.5t-63.5 46.5q-31 35 -50 91t-19 125zM413 266q0 58 -10 100.5t-24 65.5q-31 50 -92 50q-24 0 -49 -10
t-39 -36q-13 -24 -19.5 -65.5t-6.5 -92.5q0 -58 8 -101t20 -66q14 -26 38 -40t53 -14q23 0 47 10.5t40 35.5q16 26 25 68t9 95z" />
    <glyph glyph-name="edotbelow" unicode="&#x1eb9;" horiz-adv-x="556" 
d="M169 256q0 -68 20 -113q32 -71 110 -71q45 0 88 19.5t74 60.5l54 -42q-35 -50 -94.5 -85t-146.5 -35q-74 0 -126.5 29.5t-80.5 86.5q-15 31 -22 68.5t-7 82.5q0 140 64 216.5t183 76.5q54 0 98 -16.5t74.5 -47t47 -75t16.5 -100.5q0 -11 -0.5 -21.5t-2.5 -33.5h-349z
M283 481q-103 0 -113 -161h220v26q0 65 -28 100t-79 35z" />
    <glyph glyph-name="hdotbelow" unicode="&#x1e25;" horiz-adv-x="658" 
d="M442 268q0 32 -1 55.5t-2.5 41t-5 29.5t-7.5 21q-25 49 -88 49q-28 0 -54 -14t-41 -40q-8 -14 -14 -37t-6 -57v-241l67 -19v-56h-271v56l77 19v630l-77 19v56h204v-334q26 48 68.5 76t93.5 28q43 0 72.5 -10.5t51.5 -33.5q31 -32 45.5 -85.5t14.5 -139.5v-206l77 -19v-56
h-271v56l67 19v193z" />
    <glyph glyph-name="idotbelow" unicode="&#x1ecb;" horiz-adv-x="331" 
d="M31 484v56h204v-465l77 -19v-56h-281v56l77 19v390zM97 692q0 32 19.5 52t54.5 20t55 -20t20 -52t-19.5 -51.5t-55.5 -19.5t-55 19.5t-19 51.5z" />
    <glyph glyph-name="odotbelow" unicode="&#x1ecd;" horiz-adv-x="594" 
d="M557 270q0 -64 -18.5 -120.5t-53.5 -94.5q-33 -35 -79 -50t-109 -15t-109 15t-79 50q-35 38 -53.5 94.5t-18.5 120.5t18.5 120.5t53.5 94.5q33 35 79 50t109 15t109 -15t79 -50q35 -38 53.5 -94.5t18.5 -120.5zM206 97q27 -40 91 -40t91 40q32 49 32 173t-32 173
q-27 40 -91 40t-91 -40q-32 -49 -32 -173t32 -173z" />
    <glyph glyph-name="rdotbelow" unicode="&#x1e5b;" horiz-adv-x="474" 
d="M330 467q-9 0 -19 -8t-19.5 -20t-17 -25.5t-11.5 -23.5q-12 -35 -21 -70.5t-9 -87.5v-157l108 -19v-56h-312v56l77 19v405l-77 19v41h174l22 -132h4q23 69 61.5 105.5t86.5 36.5q39 0 65 -24.5t26 -65.5q0 -30 -18 -54.5t-51 -24.5q-41 0 -57.5 18.5t-16.5 40.5
q0 7 1 11.5t4 15.5z" />
    <glyph glyph-name="sdotbelow" unicode="&#x1e63;" horiz-adv-x="516" 
d="M243 51q25 0 47 5t38.5 14t26 22.5t9.5 30.5q0 20 -12.5 35t-33 26t-46 19.5l-50.5 16.5q-31 9 -60.5 22.5t-53 34t-37.5 48.5t-14 66q0 72 52 115.5t149 43.5q46 0 83 -10t63 -28.5t40.5 -44t14.5 -55.5q0 -35 -18.5 -53t-50.5 -18t-50 15.5t-18 36.5q0 17 10 32.5
t26 23.5q-14 19 -37.5 29.5t-58.5 10.5q-47 0 -70 -19.5t-23 -54.5q0 -40 26 -59.5t70 -32.5q40 -12 79 -25t69.5 -32t49 -46.5t18.5 -66.5t-18.5 -69.5t-51 -51t-76.5 -31.5t-95 -11q-96 0 -149.5 35t-53.5 95q0 41 23 64t55 23q24 0 44.5 -13.5t20.5 -38.5q0 -18 -11 -35
t-25 -25q10 -16 33 -30t66 -14z" />
    <glyph glyph-name="tdotbelow" unicode="&#x1e6d;" horiz-adv-x="365" 
d="M5 526l98 14l12 124l114 16v-140h128v-65h-128v-327q0 -34 1 -46.5t4 -20.5q3 -6 11 -9t26 -3h70v-44q-58 -18 -102.5 -26.5t-70.5 -8.5q-45 0 -58 37q-5 12 -6.5 30.5t-1.5 56.5v361h-97v51z" />
    <glyph glyph-name="udotbelow" unicode="&#x1ee5;" horiz-adv-x="652" 
d="M218 272q0 -32 0.5 -55.5t2 -41t4 -29.5t5.5 -21q8 -24 26.5 -36.5t37.5 -12.5q27 0 49 10t41 27q22 20 32.5 46.5t12.5 68.5v237l-87 19v56h214v-465l77 -19v-56l-185 -10l-11 110h-4q-29 -51 -79 -80.5t-107 -29.5q-38 0 -69.5 14t-49.5 40q-20 28 -28.5 78.5
t-8.5 136.5v206l-67 19v56h194v-268z" />
    <glyph glyph-name="zdotbelow" unicode="&#x1e93;" horiz-adv-x="558" 
d="M425 207h87v-207h-473v71l313 398h-189l-24 -131h-87v202h456v-71l-312 -398h209z" />
    <glyph glyph-name="slash" unicode="/" horiz-adv-x="321" 
d="M190 730h87l-146 -740h-87z" />
    <glyph glyph-name="backslash" unicode="\" horiz-adv-x="321" 
d="M277 -10h-87l-146 740h87z" />
    <glyph glyph-name="fraction" unicode="&#x2044;" horiz-adv-x="40" 
d="M171 730h84l-386 -740h-84z" />
    <glyph glyph-name="uni2215" unicode="&#x2215;" horiz-adv-x="431" 
d="M367 730h84l-386 -740h-84z" />
    <glyph glyph-name="breve" unicode="&#x2d8;" horiz-adv-x="364" 
d="M344 780q-1 -43 -14 -76.5t-35 -57t-52.5 -35.5t-66.5 -12q-75 0 -115.5 50t-40.5 131h63q2 -44 28 -63t65 -19q50 0 77.5 19t27.5 63h63z" />
    <glyph glyph-name="abreve" unicode="&#x103;" horiz-adv-x="549" 
d="M30 118q0 41 18.5 72.5t57 55.5t98 41t141.5 30q-5 50 -11.5 76.5t-17.5 46.5q-14 23 -32.5 37t-47.5 14q-21 0 -38.5 -8t-23.5 -22q14 -8 19.5 -22.5t5.5 -25.5q0 -25 -22 -44.5t-53 -19.5q-32 0 -49.5 20.5t-17.5 51.5t17 55t45 40.5t62.5 25t69.5 8.5q47 0 84.5 -13.5
t60.5 -33.5q79 -70 79 -222v-130q0 -50 6.5 -68.5t28.5 -18.5h45v-45q-92 -29 -139 -29q-17 0 -27.5 5t-16.5 17t-8.5 33t-2.5 54h-4q-31 -51 -82 -80t-110 -29q-63 0 -99 34t-36 94zM226 63q21 0 46.5 13.5t44.5 39.5q11 14 21 40t10 62q0 12 -1 26.5t-3 28.5
q-52 -11 -86.5 -23.5t-55.5 -27.5t-30 -34.5t-9 -44.5q0 -44 20 -62t43 -18zM419 780q-1 -43 -14 -76.5t-35 -57t-52.5 -35.5t-66.5 -12q-75 0 -115.5 50t-40.5 131h63q2 -44 28 -63t65 -19q50 0 77.5 19t27.5 63h63z" />
    <glyph glyph-name="ebreve" unicode="&#x115;" horiz-adv-x="556" 
d="M169 256q0 -68 20 -113q32 -71 110 -71q45 0 88 19.5t74 60.5l54 -42q-35 -50 -94.5 -85t-146.5 -35q-74 0 -126.5 29.5t-80.5 86.5q-15 31 -22 68.5t-7 82.5q0 140 64 216.5t183 76.5q54 0 98 -16.5t74.5 -47t47 -75t16.5 -100.5q0 -11 -0.5 -21.5t-2.5 -33.5h-349z
M283 481q-103 0 -113 -161h220v26q0 65 -28 100t-79 35zM444 780q-1 -43 -14 -76.5t-35 -57t-52.5 -35.5t-66.5 -12q-75 0 -115.5 50t-40.5 131h63q2 -44 28 -63t65 -19q50 0 77.5 19t27.5 63h63z" />
    <glyph glyph-name="obreve" unicode="&#x14f;" horiz-adv-x="594" 
d="M557 270q0 -64 -18.5 -120.5t-53.5 -94.5q-33 -35 -79 -50t-109 -15t-109 15t-79 50q-35 38 -53.5 94.5t-18.5 120.5t18.5 120.5t53.5 94.5q33 35 79 50t109 15t109 -15t79 -50q35 -38 53.5 -94.5t18.5 -120.5zM206 97q27 -40 91 -40t91 40q32 49 32 173t-32 173
q-27 40 -91 40t-91 -40q-32 -49 -32 -173t32 -173zM465 780q-1 -43 -14 -76.5t-35 -57t-52.5 -35.5t-66.5 -12q-75 0 -115.5 50t-40.5 131h63q2 -44 28 -63t65 -19q50 0 77.5 19t27.5 63h63z" />
    <glyph glyph-name="ubreve" unicode="&#x16d;" horiz-adv-x="652" 
d="M218 272q0 -32 0.5 -55.5t2 -41t4 -29.5t5.5 -21q8 -24 26.5 -36.5t37.5 -12.5q27 0 49 10t41 27q22 20 32.5 46.5t12.5 68.5v237l-87 19v56h214v-465l77 -19v-56l-185 -10l-11 110h-4q-29 -51 -79 -80.5t-107 -29.5q-38 0 -69.5 14t-49.5 40q-20 28 -28.5 78.5
t-8.5 136.5v206l-67 19v56h194v-268zM489 780q-1 -43 -14 -76.5t-35 -57t-52.5 -35.5t-66.5 -12q-75 0 -115.5 50t-40.5 131h63q2 -44 28 -63t65 -19q50 0 77.5 19t27.5 63h63z" />
    <glyph glyph-name="gbreve" unicode="&#x11f;" horiz-adv-x="575" 
d="M528 -6q0 -92 -66 -135t-210 -43q-48 0 -90 6.5t-73.5 21.5t-49.5 39t-18 59q0 46 29 74t86 30v4q-76 21 -76 76q0 15 5.5 31.5t18 31t32 25.5t47.5 15q-54 13 -83.5 53.5t-29.5 95.5q0 80 53.5 126t155.5 46q33 0 58.5 -3t46 -9t36.5 -14.5t31 -19.5l34 12l92 44h17
v-103h-17l-70 8h-25q20 -31 20 -81q0 -82 -50.5 -129.5t-147.5 -47.5q-11 0 -20.5 0.5t-19.5 1.5q-39 -5 -62.5 -17.5t-23.5 -35.5q0 -18 18.5 -24.5t69.5 -6.5h116q166 0 166 -131zM253 33q-67 0 -97 -21t-30 -55q0 -76 143 -76q77 0 117 22t40 66q0 35 -31 49.5t-107 14.5
h-35zM168 382q0 -57 24 -86t69 -29q54 0 78.5 29t24.5 86q0 53 -24.5 80t-78.5 27q-45 0 -69 -27t-24 -80zM435 780q-1 -43 -14 -76.5t-35 -57t-52.5 -35.5t-66.5 -12q-75 0 -115.5 50t-40.5 131h63q2 -44 28 -63t65 -19q50 0 77.5 19t27.5 63h63z" />
    <glyph glyph-name="ring" unicode="&#x2da;" horiz-adv-x="240" 
d="M20 713q0 43 28 72t71 29t72 -29t29 -72t-29 -71t-72 -28t-71 28t-28 71zM91 713q0 -12 8 -20t20 -8q13 0 21.5 8t8.5 20q0 13 -8.5 21.5t-21.5 8.5q-12 0 -20 -8.5t-8 -21.5z" />
    <glyph glyph-name="aring" unicode="&#xe5;" horiz-adv-x="549" 
d="M30 118q0 41 18.5 72.5t57 55.5t98 41t141.5 30q-5 50 -11.5 76.5t-17.5 46.5q-14 23 -32.5 37t-47.5 14q-21 0 -38.5 -8t-23.5 -22q14 -8 19.5 -22.5t5.5 -25.5q0 -25 -22 -44.5t-53 -19.5q-32 0 -49.5 20.5t-17.5 51.5t17 55t45 40.5t62.5 25t69.5 8.5q47 0 84.5 -13.5
t60.5 -33.5q79 -70 79 -222v-130q0 -50 6.5 -68.5t28.5 -18.5h45v-45q-92 -29 -139 -29q-17 0 -27.5 5t-16.5 17t-8.5 33t-2.5 54h-4q-31 -51 -82 -80t-110 -29q-63 0 -99 34t-36 94zM226 63q21 0 46.5 13.5t44.5 39.5q11 14 21 40t10 62q0 12 -1 26.5t-3 28.5
q-52 -11 -86.5 -23.5t-55.5 -27.5t-30 -34.5t-9 -44.5q0 -44 20 -62t43 -18zM173 713q0 43 28 72t71 29t72 -29t29 -72t-29 -71t-72 -28t-71 28t-28 71zM244 713q0 -12 8 -20t20 -8q13 0 21.5 8t8.5 20q0 13 -8.5 21.5t-21.5 8.5q-12 0 -20 -8.5t-8 -21.5z" />
    <glyph glyph-name="uring" unicode="&#x16f;" horiz-adv-x="652" 
d="M218 272q0 -32 0.5 -55.5t2 -41t4 -29.5t5.5 -21q8 -24 26.5 -36.5t37.5 -12.5q27 0 49 10t41 27q22 20 32.5 46.5t12.5 68.5v237l-87 19v56h214v-465l77 -19v-56l-185 -10l-11 110h-4q-29 -51 -79 -80.5t-107 -29.5q-38 0 -69.5 14t-49.5 40q-20 28 -28.5 78.5
t-8.5 136.5v206l-67 19v56h194v-268zM222 713q0 43 28 72t71 29t72 -29t29 -72t-29 -71t-72 -28t-71 28t-28 71zM293 713q0 -12 8 -20t20 -8q13 0 21.5 8t8.5 20q0 13 -8.5 21.5t-21.5 8.5q-12 0 -20 -8.5t-8 -21.5z" />
    <glyph glyph-name="ibreve" unicode="&#x12d;" horiz-adv-x="331" 
d="M31 484v56h204v-465l77 -19v-56h-281v56l77 19v390zM339 780q-1 -43 -14 -76.5t-35 -57t-52.5 -35.5t-66.5 -12q-75 0 -115.5 50t-40.5 131h63q2 -44 28 -63t65 -19q50 0 77.5 19t27.5 63h63z" />
    <glyph glyph-name="aeacute" unicode="&#x1fd;" horiz-adv-x="850" 
d="M31 117q0 39 17.5 70.5t55.5 56t98 42.5t144 31q-5 52 -12 78.5t-17 44.5q-30 51 -87 51q-17 0 -34.5 -10t-22.5 -27q13 -10 20 -24.5t7 -28.5q0 -24 -18.5 -40.5t-51.5 -16.5t-52.5 19.5t-19.5 56.5q0 31 17.5 55.5t45 41t62 25t68.5 8.5q60 0 104 -25.5t58 -77.5h5
q20 51 63.5 77t100.5 26q117 0 175 -63.5t58 -175.5q0 -10 -0.5 -22.5t-2.5 -32.5h-349q0 -38 5 -64t15 -49q15 -38 44 -54.5t63 -16.5q48 0 86.5 19.5t69.5 53.5l60 -43q-20 -24 -42.5 -44.5t-50.5 -35.5t-63 -23.5t-80 -8.5q-132 0 -190 109h-7q-31 -51 -80 -80t-127 -29
q-63 0 -99 33.5t-36 93.5zM566 481q-47 0 -72 -38.5t-30 -122.5h220v26q0 65 -30.5 100t-87.5 35zM238 63q20 0 42 15t40 40q13 18 21 41.5t8 55.5q0 17 -1 29.5t-3 27.5q-52 -12 -87 -24t-56 -27t-29.5 -35t-8.5 -48q0 -36 19.5 -55.5t54.5 -19.5zM423 715q15 24 27.5 39.5
t23.5 24.5t23 13t26 4q32 0 44 -12.5t12 -29.5q0 -15 -18 -33.5t-66 -53.5l-38 -28h-83z" />
    <glyph glyph-name="aringacute" unicode="&#x1fb;" horiz-adv-x="549" 
d="M30 118q0 41 18.5 72.5t57 55.5t98 41t141.5 30q-5 50 -11.5 76.5t-17.5 46.5q-14 23 -32.5 37t-47.5 14q-21 0 -38.5 -8t-23.5 -22q14 -8 19.5 -22.5t5.5 -25.5q0 -25 -22 -44.5t-53 -19.5q-32 0 -49.5 20.5t-17.5 51.5t17 55t45 40.5t62.5 25t69.5 8.5q47 0 84.5 -13.5
t60.5 -33.5q79 -70 79 -222v-130q0 -50 6.5 -68.5t28.5 -18.5h45v-45q-92 -29 -139 -29q-17 0 -27.5 5t-16.5 17t-8.5 33t-2.5 54h-4q-31 -51 -82 -80t-110 -29q-63 0 -99 34t-36 94zM167 681q0 43 28 72t71 29q18 0 35 -6q11 11 19.5 15t19.5 4q34 0 34 -31q0 -10 -3.5 -18
t-14.5 -19q11 -22 11 -46q0 -43 -29 -71t-72 -28q-27 0 -49 11l-3 -3h-53l24 32q-18 24 -18 59zM226 63q21 0 46.5 13.5t44.5 39.5q11 14 21 40t10 62q0 12 -1 26.5t-3 28.5q-52 -11 -86.5 -23.5t-55.5 -27.5t-30 -34.5t-9 -44.5q0 -44 20 -62t43 -18zM238 681q0 -12 8 -20
t20 -8q13 0 21.5 8t8.5 20q0 13 -8.5 21.5t-21.5 8.5q-12 0 -20 -8.5t-8 -21.5z" />
    <glyph glyph-name="macron" unicode="&#xaf;" horiz-adv-x="329" 
d="M25 730h279v-95h-279v95z" />
    <glyph glyph-name="asciicircum" unicode="^" horiz-adv-x="392" 
d="M347 639h-83l-68 76l-68 -76h-83l88 151h125z" />
    <glyph glyph-name="amacron" unicode="&#x101;" horiz-adv-x="549" 
d="M30 118q0 41 18.5 72.5t57 55.5t98 41t141.5 30q-5 50 -11.5 76.5t-17.5 46.5q-14 23 -32.5 37t-47.5 14q-21 0 -38.5 -8t-23.5 -22q14 -8 19.5 -22.5t5.5 -25.5q0 -25 -22 -44.5t-53 -19.5q-32 0 -49.5 20.5t-17.5 51.5t17 55t45 40.5t62.5 25t69.5 8.5q47 0 84.5 -13.5
t60.5 -33.5q79 -70 79 -222v-130q0 -50 6.5 -68.5t28.5 -18.5h45v-45q-92 -29 -139 -29q-17 0 -27.5 5t-16.5 17t-8.5 33t-2.5 54h-4q-31 -51 -82 -80t-110 -29q-63 0 -99 34t-36 94zM226 63q21 0 46.5 13.5t44.5 39.5q11 14 21 40t10 62q0 12 -1 26.5t-3 28.5
q-52 -11 -86.5 -23.5t-55.5 -27.5t-30 -34.5t-9 -44.5q0 -44 20 -62t43 -18zM130 730h279v-95h-279v95z" />
    <glyph glyph-name="emacron" unicode="&#x113;" horiz-adv-x="556" 
d="M169 256q0 -68 20 -113q32 -71 110 -71q45 0 88 19.5t74 60.5l54 -42q-35 -50 -94.5 -85t-146.5 -35q-74 0 -126.5 29.5t-80.5 86.5q-15 31 -22 68.5t-7 82.5q0 140 64 216.5t183 76.5q54 0 98 -16.5t74.5 -47t47 -75t16.5 -100.5q0 -11 -0.5 -21.5t-2.5 -33.5h-349z
M283 481q-103 0 -113 -161h220v26q0 65 -28 100t-79 35zM136 730h279v-95h-279v95z" />
    <glyph glyph-name="omacron" unicode="&#x14d;" horiz-adv-x="594" 
d="M557 270q0 -64 -18.5 -120.5t-53.5 -94.5q-33 -35 -79 -50t-109 -15t-109 15t-79 50q-35 38 -53.5 94.5t-18.5 120.5t18.5 120.5t53.5 94.5q33 35 79 50t109 15t109 -15t79 -50q35 -38 53.5 -94.5t18.5 -120.5zM206 97q27 -40 91 -40t91 40q32 49 32 173t-32 173
q-27 40 -91 40t-91 -40q-32 -49 -32 -173t32 -173zM157 730h279v-95h-279v95z" />
    <glyph glyph-name="umacron" unicode="&#x16b;" horiz-adv-x="652" 
d="M218 272q0 -32 0.5 -55.5t2 -41t4 -29.5t5.5 -21q8 -24 26.5 -36.5t37.5 -12.5q27 0 49 10t41 27q22 20 32.5 46.5t12.5 68.5v237l-87 19v56h214v-465l77 -19v-56l-185 -10l-11 110h-4q-29 -51 -79 -80.5t-107 -29.5q-38 0 -69.5 14t-49.5 40q-20 28 -28.5 78.5
t-8.5 136.5v206l-67 19v56h194v-268zM181 730h279v-95h-279v95z" />
    <glyph glyph-name="imacron" unicode="&#x12b;" horiz-adv-x="331" 
d="M31 484v56h204v-465l77 -19v-56h-281v56l77 19v390zM31 730h279v-95h-279v95z" />
    <glyph glyph-name="quotedbl" unicode="&#x22;" horiz-adv-x="424" 
d="M274 470q0 33 -4 66t-9 62.5l-9 53t-4 37.5q0 32 14 51.5t51 19.5q36 0 50 -19.5t14 -51.5q0 -14 -4 -37.5l-9 -53t-9 -62.5t-4 -66h-77zM73 470q0 33 -4 66t-9 62.5l-9 53t-4 37.5q0 32 14 51.5t51 19.5q36 0 50 -19.5t14 -51.5q0 -14 -4 -37.5l-9 -53t-9 -62.5t-4 -66
h-77z" />
    <glyph glyph-name="quotesingle" unicode="'" horiz-adv-x="223" 
d="M73 470q0 33 -4 66t-9 62.5l-9 53t-4 37.5q0 32 14 51.5t51 19.5q36 0 50 -19.5t14 -51.5q0 -14 -4 -37.5l-9 -53t-9 -62.5t-4 -66h-77z" />
    <glyph glyph-name="caron.alt" horiz-adv-x="119" 
d="M24 590q0 25 -3 44t-6.5 35.5l-6.5 31.5t-3 31q0 9 2.5 19t8.5 19t16.5 14.5t27.5 5.5q32 0 43 -19t11 -39q0 -16 -3 -31t-7 -31.5t-7 -35.5t-3 -44h-70z" />
    <glyph glyph-name="dcaron" unicode="&#x10f;" horiz-adv-x="636" 
d="M38 269q0 66 18 123.5t50 92.5q59 65 159 65q47 0 83 -17t65 -61v233l-77 19v56h204v-705l77 -19v-56l-185 -10l-8 82q-31 -47 -70 -64.5t-91 -17.5q-55 0 -92.5 16.5t-63.5 46.5q-31 35 -50 91t-19 125zM413 266q0 58 -10 100.5t-24 65.5q-31 50 -92 50q-24 0 -49 -10
t-39 -36q-13 -24 -19.5 -65.5t-6.5 -92.5q0 -58 8 -101t20 -66q14 -26 38 -40t53 -14q23 0 47 10.5t40 35.5q16 26 25 68t9 95zM605 590q0 25 -3 44t-6.5 35.5l-6.5 31.5t-3 31q0 9 2.5 19t8.5 19t16.5 14.5t27.5 5.5q32 0 43 -19t11 -39q0 -16 -3 -31t-7 -31.5t-7 -35.5
t-3 -44h-70z" />
    <glyph glyph-name="lcaron" unicode="&#x13e;" horiz-adv-x="326" 
d="M99 704l-77 19v57h204v-704l77 -19v-57h-281v57l77 19v628zM273 590q0 25 -3 44t-6.5 35.5l-6.5 31.5t-3 31q0 9 2.5 19t8.5 19t16.5 14.5t27.5 5.5q32 0 43 -19t11 -39q0 -16 -3 -31t-7 -31.5t-7 -35.5t-3 -44h-70z" />
    <glyph glyph-name="tcaron" unicode="&#x165;" horiz-adv-x="365" 
d="M5 526l98 14l12 124l114 16v-140h128v-65h-128v-327q0 -34 1 -46.5t4 -20.5q3 -6 11 -9t26 -3h70v-44q-58 -18 -102.5 -26.5t-70.5 -8.5q-45 0 -58 37q-5 12 -6.5 30.5t-1.5 56.5v361h-97v51zM281 590q0 25 -3 44t-6.5 35.5l-6.5 31.5t-3 31q0 9 2.5 19t8.5 19t16.5 14.5
t27.5 5.5q32 0 43 -19t11 -39q0 -16 -3 -31t-7 -31.5t-7 -35.5t-3 -44h-70z" />
    <glyph glyph-name="tbar" unicode="&#x167;" horiz-adv-x="368" 
d="M7 526l98 14l12 124l114 16v-140h128v-65h-128v-84h112v-75h-112v-168q0 -34 1 -46.5t4 -20.5q3 -6 11 -9t26 -3h70v-44q-58 -18 -102.5 -26.5t-70.5 -8.5q-45 0 -58 37q-5 12 -6.5 30.5t-1.5 56.5v202h-82v75h82v84h-97v51z" />
    <glyph glyph-name="ldot" unicode="&#x140;" horiz-adv-x="364" 
d="M99 704l-77 19v57h204v-704l77 -19v-57h-281v57l77 19v628zM266 358q0 37 21 58.5t57 21.5t57.5 -22t21.5 -58t-21.5 -57t-57.5 -21q-38 0 -58 20t-20 58z" />
    <glyph glyph-name="dcroat" unicode="&#x111;" horiz-adv-x="636" 
d="M321 677h92v28l-77 19v56h204v-103h62v-76h-62v-526l77 -19v-56l-185 -10l-8 82q-31 -47 -70 -64.5t-91 -17.5q-55 0 -92.5 16.5t-63.5 46.5q-31 35 -50 91t-19 125q0 66 18 123.5t50 92.5q59 65 159 65q47 0 83 -17t65 -61v129h-92v76zM413 266q0 58 -10 100.5t-24 65.5
q-31 50 -92 50q-24 0 -49 -10t-39 -36q-13 -24 -19.5 -65.5t-6.5 -92.5q0 -58 8 -101t20 -66q14 -26 38 -40t53 -14q23 0 47 10.5t40 35.5q16 26 25 68t9 95z" />
    <glyph glyph-name="hbar" unicode="&#x127;" horiz-adv-x="658" 
d="M33 677h63v28l-77 19v56h204v-103h91v-77h-91v-154q26 48 68.5 76t93.5 28q43 0 72.5 -10.5t51.5 -33.5q31 -32 45.5 -85.5t14.5 -139.5v-206l77 -19v-56h-271v56l67 19v193q0 32 -1 55.5t-2.5 41t-5 29.5t-7.5 21q-25 49 -88 49q-28 0 -54 -14t-41 -40q-8 -14 -14 -37
t-6 -57v-241l67 -19v-56h-271v56l77 19v525h-63v77z" />
    <glyph glyph-name="apostrophe" unicode="&#x2bc;" horiz-adv-x="175" 
d="M93 800q32 0 49.5 -22t17.5 -53q0 -20 -8 -41t-22.5 -41t-34 -37.5t-42.5 -30.5l-38 41q40 26 55 47t17 29l-3 2q-4 -3 -8 -4.5t-14 -1.5q-19 0 -30.5 15.5t-11.5 36.5t18 40.5t55 19.5z" />
    <glyph glyph-name="napostrophe" unicode="&#x149;" horiz-adv-x="768" 
d="M202 465l-77 19v56h174l22 -100h4q30 51 80.5 80.5t109.5 29.5q40 0 72 -14t51 -40q20 -28 28.5 -78.5t8.5 -136.5v-206l77 -19v-56h-271v56l67 19v193q0 60 -3.5 93.5t-12.5 53.5q-11 26 -30 36t-45 10q-49 0 -83 -32q-41 -38 -45 -117v-237l67 -19v-56h-271v56l77 19
v390zM90 800q32 0 49.5 -22t17.5 -53q0 -20 -8 -41t-22.5 -41t-34 -37.5t-42.5 -30.5l-38 41q40 26 55 47t17 29l-3 2q-4 -3 -8 -4.5t-14 -1.5q-19 0 -30.5 15.5t-11.5 36.5t18 40.5t55 19.5z" />
    <glyph glyph-name="commaaccent" unicode="&#xf6c3;" horiz-adv-x="180" 
d="M100 -44q33 0 52.5 -17.5t19.5 -47.5q0 -39 -23 -71t-77 -60l-30 32q49 39 52 67l-3 2q-2 -2 -7 -3.5t-10 -1.5q-19 0 -29 14t-10 31q0 26 16 40.5t49 14.5z" />
    <glyph glyph-name="kcommaaccent" unicode="&#x137;" horiz-adv-x="609" 
d="M411 75l-132 176l-56 -47v-129l77 -19v-56h-281v56l77 19v630l-77 19v56h204v-498l170 184l-52 18v56h245v-56l-88 -19l-137 -140l187 -252l53 -17v-56h-249v56zM334 -44q33 0 52.5 -17.5t19.5 -47.5q0 -39 -23 -71t-77 -60l-30 32q49 39 52 67l-3 2q-2 -2 -7 -3.5
t-10 -1.5q-19 0 -29 14t-10 31q0 26 16 40.5t49 14.5z" />
    <glyph glyph-name="lcommaaccent" unicode="&#x13c;" horiz-adv-x="326" 
d="M99 704l-77 19v57h204v-704l77 -19v-57h-281v57l77 19v628zM170 -44q33 0 52.5 -17.5t19.5 -47.5q0 -39 -23 -71t-77 -60l-30 32q49 39 52 67l-3 2q-2 -2 -7 -3.5t-10 -1.5q-19 0 -29 14t-10 31q0 26 16 40.5t49 14.5z" />
    <glyph glyph-name="ncommaaccent" unicode="&#x146;" horiz-adv-x="674" 
d="M108 465l-77 19v56h174l22 -100h4q30 51 80.5 80.5t109.5 29.5q40 0 72 -14t51 -40q20 -28 28.5 -78.5t8.5 -136.5v-206l77 -19v-56h-271v56l67 19v193q0 60 -3.5 93.5t-12.5 53.5q-11 26 -30 36t-45 10q-49 0 -83 -32q-41 -38 -45 -117v-237l67 -19v-56h-271v56l77 19
v390zM354 -44q33 0 52.5 -17.5t19.5 -47.5q0 -39 -23 -71t-77 -60l-30 32q49 39 52 67l-3 2q-2 -2 -7 -3.5t-10 -1.5q-19 0 -29 14t-10 31q0 26 16 40.5t49 14.5z" />
    <glyph glyph-name="rcommaaccent" unicode="&#x157;" horiz-adv-x="474" 
d="M330 467q-9 0 -19 -8t-19.5 -20t-17 -25.5t-11.5 -23.5q-12 -35 -21 -70.5t-9 -87.5v-157l108 -19v-56h-312v56l77 19v405l-77 19v41h174l22 -132h4q23 69 61.5 105.5t86.5 36.5q39 0 65 -24.5t26 -65.5q0 -30 -18 -54.5t-51 -24.5q-41 0 -57.5 18.5t-16.5 40.5
q0 7 1 11.5t4 15.5zM179 -44q33 0 52.5 -17.5t19.5 -47.5q0 -39 -23 -71t-77 -60l-30 32q49 39 52 67l-3 2q-2 -2 -7 -3.5t-10 -1.5q-19 0 -29 14t-10 31q0 26 16 40.5t49 14.5z" />
    <glyph glyph-name="uni0219" unicode="&#x219;" horiz-adv-x="516" 
d="M243 51q25 0 47 5t38.5 14t26 22.5t9.5 30.5q0 20 -12.5 35t-33 26t-46 19.5l-50.5 16.5q-31 9 -60.5 22.5t-53 34t-37.5 48.5t-14 66q0 72 52 115.5t149 43.5q46 0 83 -10t63 -28.5t40.5 -44t14.5 -55.5q0 -35 -18.5 -53t-50.5 -18t-50 15.5t-18 36.5q0 17 10 32.5
t26 23.5q-14 19 -37.5 29.5t-58.5 10.5q-47 0 -70 -19.5t-23 -54.5q0 -40 26 -59.5t70 -32.5q40 -12 79 -25t69.5 -32t49 -46.5t18.5 -66.5t-18.5 -69.5t-51 -51t-76.5 -31.5t-95 -11q-96 0 -149.5 35t-53.5 95q0 41 23 64t55 23q24 0 44.5 -13.5t20.5 -38.5q0 -18 -11 -35
t-25 -25q10 -16 33 -30t66 -14zM266 -44q33 0 52.5 -17.5t19.5 -47.5q0 -39 -23 -71t-77 -60l-30 32q49 39 52 67l-3 2q-2 -2 -7 -3.5t-10 -1.5q-19 0 -29 14t-10 31q0 26 16 40.5t49 14.5z" />
    <glyph glyph-name="uni021B" unicode="&#x21b;" horiz-adv-x="365" 
d="M5 526l98 14l12 124l114 16v-140h128v-65h-128v-327q0 -34 1 -46.5t4 -20.5q3 -6 11 -9t26 -3h70v-44q-58 -18 -102.5 -26.5t-70.5 -8.5q-45 0 -58 37q-5 12 -6.5 30.5t-1.5 56.5v361h-97v51zM194 -44q33 0 52.5 -17.5t19.5 -47.5q0 -39 -23 -71t-77 -60l-30 32
q49 39 52 67l-3 2q-2 -2 -7 -3.5t-10 -1.5q-19 0 -29 14t-10 31q0 26 16 40.5t49 14.5z" />
    <glyph glyph-name="oslash" unicode="&#xf8;" horiz-adv-x="594" 
d="M557 270q0 -64 -18.5 -120.5t-53.5 -94.5q-33 -35 -79 -50t-109 -15q-47 0 -86 9l-30 -59h-94l48 92q-15 10 -26 23q-35 38 -53.5 94.5t-18.5 120.5t18.5 120.5t53.5 94.5q33 35 79 50t109 15q58 0 101 -13l23 45h94l-44 -84l14 -13q35 -38 53.5 -94.5t18.5 -120.5z
M174 270q0 -43 3 -76.5t11 -58.5l173 333q-26 15 -64 15q-64 0 -91 -40q-32 -49 -32 -173zM420 270q0 67 -9 112l-165 -317q19 -8 51 -8q64 0 91 40q32 49 32 173z" />
    <glyph glyph-name="oslashacute" unicode="&#x1ff;" horiz-adv-x="594" 
d="M557 270q0 -64 -18.5 -120.5t-53.5 -94.5q-33 -35 -79 -50t-109 -15q-47 0 -86 9l-30 -59h-94l48 92q-15 10 -26 23q-35 38 -53.5 94.5t-18.5 120.5t18.5 120.5t53.5 94.5q33 35 79 50t109 15q58 0 101 -13l23 45h94l-44 -84l14 -13q35 -38 53.5 -94.5t18.5 -120.5z
M174 270q0 -43 3 -76.5t11 -58.5l173 333q-26 15 -64 15q-64 0 -91 -40q-32 -49 -32 -173zM420 270q0 67 -9 112l-165 -317q19 -8 51 -8q64 0 91 40q32 49 32 173zM301 715q15 24 27.5 39.5t23.5 24.5t23 13t26 4q32 0 44 -12.5t12 -29.5q0 -15 -18 -33.5t-66 -53.5l-38 -28
h-83z" />
    <glyph glyph-name="cedilla" unicode="&#xb8;" horiz-adv-x="254" 
d="M101 -210q-53 0 -91 28l31 42q29 -20 59 -20q42 0 42 26q0 13 -12.5 20.5t-32.5 7.5q-11 0 -24 -1.5t-22 -4.5l-17 29l77 100h74l-42 -70l1 -3q56 0 78 -19t22 -51q0 -20 -11.5 -36t-31 -26.5t-45.5 -16t-55 -5.5z" />
    <glyph glyph-name="ccedilla" unicode="&#xe7;" horiz-adv-x="546" 
d="M252 -210q-53 0 -91 28l31 42q29 -20 59 -20q42 0 42 26q0 13 -12.5 20.5t-32.5 7.5q-11 0 -24 -1.5t-22 -4.5l-17 29l57 75q-117 12 -169 110q-17 32 -26.5 73.5t-9.5 89.5q0 65 18 117.5t51.5 90t82.5 57.5t111 20q46 0 85 -11t67.5 -31.5t44.5 -49.5t16 -64
q0 -45 -24 -68.5t-59 -23.5q-20 0 -33 6.5t-21.5 17t-12 23.5t-3.5 26q0 25 12.5 43t37.5 26q-14 18 -42 29t-63 11q-32 0 -56.5 -11t-41.5 -35.5t-26 -65t-9 -99.5q0 -54 7 -85t19 -54q16 -29 41 -45.5t64 -16.5q20 0 42.5 5t44 14.5t41 24.5t34.5 36l54 -42
q-40 -55 -90.5 -83t-107.5 -34l-27 -46l1 -3q56 0 78 -19t22 -51q0 -20 -11.5 -36t-31 -26.5t-45.5 -16t-55 -5.5z" />
    <glyph glyph-name="uni0163" unicode="&#x163;" horiz-adv-x="365" 
d="M172 -210q-53 0 -91 28l31 42q29 -20 59 -20q42 0 42 26q0 13 -12.5 20.5t-32.5 7.5q-11 0 -24 -1.5t-22 -4.5l-17 29l56 73q-39 3 -51 37q-5 12 -6.5 30.5t-1.5 56.5v361h-97v51l98 14l12 124l114 16v-140h128v-65h-128v-327q0 -34 1 -46.5t4 -20.5q3 -6 11 -9t26 -3h70
v-44l-50.5 -14.5t-44.5 -10.5l-32 -53l1 -3q56 0 78 -19t22 -51q0 -20 -11.5 -36t-31 -26.5t-45.5 -16t-55 -5.5z" />
    <glyph glyph-name="uni015F" unicode="&#x15f;" horiz-adv-x="515" 
d="M222 -210q-53 0 -91 28l31 42q29 -20 59 -20q42 0 42 26q0 13 -12.5 20.5t-32.5 7.5q-11 0 -24 -1.5t-22 -4.5l-17 29l57 74q-84 5 -130 39.5t-46 89.5q0 41 23 64t55 23q24 0 44.5 -13.5t20.5 -38.5q0 -18 -11 -35t-25 -25q10 -16 33 -30t66 -14q25 0 47 5t38.5 14
t26 22.5t9.5 30.5q0 20 -12.5 35t-33 26t-46 19.5l-50.5 16.5q-31 9 -60.5 22.5t-53 34t-37.5 48.5t-14 66q0 72 52 115.5t149 43.5q46 0 83 -10t63 -28.5t40.5 -44t14.5 -55.5q0 -35 -18.5 -53t-50.5 -18t-50 15.5t-18 36.5q0 17 10 32.5t26 23.5q-14 19 -37.5 29.5
t-58.5 10.5q-47 0 -70 -19.5t-23 -54.5q0 -40 26 -59.5t70 -32.5q40 -12 79 -25t69.5 -32t49 -46.5t18.5 -66.5q0 -34 -14 -61.5t-39 -47.5t-60 -33t-76 -18l-27 -46l1 -3q56 0 78 -19t22 -51q0 -20 -11.5 -36t-31 -26.5t-45.5 -16t-55 -5.5z" />
    <glyph glyph-name="ogonek" unicode="&#x2db;" horiz-adv-x="275" 
d="M131 -210q-56 0 -83.5 23.5t-27.5 61.5q0 75 114 139h71q-12 -7 -26 -20t-27 -28.5t-21.5 -32t-8.5 -31.5q0 -18 13.5 -28.5t36.5 -10.5q16 0 31.5 4t27.5 14l24 -35q-17 -26 -45 -41t-79 -15z" />
    <glyph glyph-name="aogonek" unicode="&#x105;" horiz-adv-x="549" 
d="M407 -210q-56 0 -83.5 23.5t-27.5 61.5q0 67 87 123q-13 9 -17.5 32.5t-4.5 68.5h-4q-31 -51 -82 -80t-110 -29q-63 0 -99 34t-36 94q0 41 18.5 72.5t57 55.5t98 41t141.5 30q-5 50 -11.5 76.5t-17.5 46.5q-14 23 -32.5 37t-47.5 14q-21 0 -38.5 -8t-23.5 -22
q14 -8 19.5 -22.5t5.5 -25.5q0 -25 -22 -44.5t-53 -19.5q-32 0 -49.5 20.5t-17.5 51.5t17 55t45 40.5t62.5 25t69.5 8.5q47 0 84.5 -13.5t60.5 -33.5q79 -70 79 -222v-130q0 -50 6.5 -68.5t28.5 -18.5h45v-45q-29 -10 -55 -16t-46 -9q-21 -19 -38.5 -44t-17.5 -48
q0 -18 13.5 -28.5t36.5 -10.5q16 0 31.5 4t27.5 14l24 -35q-17 -26 -45 -41t-79 -15zM226 63q21 0 46.5 13.5t44.5 39.5q11 14 21 40t10 62q0 12 -1 26.5t-3 28.5q-52 -11 -86.5 -23.5t-55.5 -27.5t-30 -34.5t-9 -44.5q0 -44 20 -62t43 -18z" />
    <glyph glyph-name="eogonek" unicode="&#x119;" horiz-adv-x="556" 
d="M251 -210q-56 0 -83.5 23.5t-27.5 61.5q0 64 81 119q-109 18 -154 112q-15 31 -22 68.5t-7 82.5q0 140 64 216.5t183 76.5q54 0 98 -16.5t74.5 -47t47 -75t16.5 -100.5q0 -11 -0.5 -21.5t-2.5 -33.5h-349q0 -68 20 -113q32 -71 110 -71q45 0 88 19.5t74 60.5l54 -42
q-33 -48 -87.5 -81t-132.5 -38q-20 -19 -36.5 -43t-16.5 -46q0 -18 13.5 -28.5t36.5 -10.5q16 0 31.5 4t27.5 14l24 -35q-17 -26 -45 -41t-79 -15zM283 481q-103 0 -113 -161h220v26q0 65 -28 100t-79 35z" />
    <glyph glyph-name="iogonek" unicode="&#x12f;" horiz-adv-x="331" 
d="M151 -210q-56 0 -83.5 23.5t-27.5 61.5q0 68 90 125h-99v56l77 19v390l-77 19v56h204v-465l77 -19v-56h-107q-22 -18 -42.5 -45.5t-20.5 -52.5q0 -18 13.5 -28.5t36.5 -10.5q16 0 31.5 4t27.5 14l24 -35q-17 -26 -45 -41t-79 -15zM97 692q0 32 19.5 52t54.5 20t55 -20
t20 -52t-19.5 -51.5t-55.5 -19.5t-55 19.5t-19 51.5z" />
    <glyph glyph-name="oogonek" unicode="&#x1eb;" horiz-adv-x="594" 
d="M273 -210q-56 0 -83.5 23.5t-27.5 61.5q0 64 80 118q-42 5 -75 20t-58 42q-35 38 -53.5 94.5t-18.5 120.5t18.5 120.5t53.5 94.5q33 35 79 50t109 15t109 -15t79 -50q35 -38 53.5 -94.5t18.5 -120.5t-18.5 -120.5t-53.5 -94.5q-31 -32 -72.5 -47t-96.5 -17
q-20 -19 -36 -43t-16 -46q0 -18 13.5 -28.5t36.5 -10.5q16 0 31.5 4t27.5 14l24 -35q-17 -26 -45 -41t-79 -15zM206 97q27 -40 91 -40t91 40q32 49 32 173t-32 173q-27 40 -91 40t-91 -40q-32 -49 -32 -173t32 -173z" />
    <glyph glyph-name="uogonek" unicode="&#x173;" horiz-adv-x="652" 
d="M484 -210q-56 0 -83.5 23.5t-27.5 61.5q0 61 75 115l-11 110h-4q-29 -51 -79 -80.5t-107 -29.5q-38 0 -69.5 14t-49.5 40q-20 28 -28.5 78.5t-8.5 136.5v206l-67 19v56h194v-268q0 -32 0.5 -55.5t2 -41t4 -29.5t5.5 -21q8 -24 26.5 -36.5t37.5 -12.5q27 0 49 10t41 27
q22 20 32.5 46.5t12.5 68.5v237l-87 19v56h214v-465l77 -19v-56l-101 -5q-21 -19 -39 -44.5t-18 -48.5q0 -18 13.5 -28.5t36.5 -10.5q16 0 31.5 4t27.5 14l24 -35q-17 -26 -45 -41t-79 -15z" />
    <glyph glyph-name="lslash" unicode="&#x142;" horiz-adv-x="328" 
d="M31 364l69 44v296l-77 19v57h204v-292l72 46v-84l-72 -46v-328l77 -19v-57h-281v57l77 19v248l-69 -43v83z" />
    <glyph glyph-name="gcommaaccent" unicode="&#x123;" horiz-adv-x="575" 
d="M528 -6q0 -92 -66 -135t-210 -43q-48 0 -90 6.5t-73.5 21.5t-49.5 39t-18 59q0 46 29 74t86 30v4q-76 21 -76 76q0 15 5.5 31.5t18 31t32 25.5t47.5 15q-54 13 -83.5 53.5t-29.5 95.5q0 80 53.5 126t155.5 46q33 0 58.5 -3t46 -9t36.5 -14.5t31 -19.5l34 12l92 44h17
v-103h-17l-70 8h-25q20 -31 20 -81q0 -82 -50.5 -129.5t-147.5 -47.5q-11 0 -20.5 0.5t-19.5 1.5q-39 -5 -62.5 -17.5t-23.5 -35.5q0 -18 18.5 -24.5t69.5 -6.5h116q166 0 166 -131zM253 33q-67 0 -97 -21t-30 -55q0 -76 143 -76q77 0 117 22t40 66q0 35 -31 49.5t-107 14.5
h-35zM168 382q0 -57 24 -86t69 -29q54 0 78.5 29t24.5 86q0 53 -24.5 80t-78.5 27q-45 0 -69 -27t-24 -80zM258 638q-33 0 -52.5 17.5t-19.5 47.5q0 39 23 71t77 60l30 -32q-49 -39 -52 -67l3 -2q2 2 7 3.5t10 1.5q19 0 29 -14t10 -31q0 -26 -16 -40.5t-49 -14.5z" />
    <glyph glyph-name="uni01C5" unicode="&#x1c5;" horiz-adv-x="1337" 
d="M380 75q54 0 92 16.5t64 49.5q27 34 41 86.5t14 126.5q0 142 -55 217q-27 37 -67.5 55.5t-98.5 18.5h-115v-570h125zM407 720q149 0 232 -84q47 -48 72 -118t25 -150q0 -85 -26 -158t-74 -123q-42 -45 -100 -66t-138 -21h-357v58l84 21v562l-84 21v58h366zM1204 207h87
v-207h-473v71l313 398h-189l-24 -131h-87v202h456v-71l-312 -398h209zM1121 629h-125l-88 151h83l68 -76l68 76h83z" />
    <glyph glyph-name="uni01C6" unicode="&#x1c6;" horiz-adv-x="1194" 
d="M38 269q0 66 18 123.5t50 92.5q59 65 159 65q47 0 83 -17t65 -61v233l-77 19v56h204v-705l77 -19v-56l-185 -10l-8 82q-31 -47 -70 -64.5t-91 -17.5q-55 0 -92.5 16.5t-63.5 46.5q-31 35 -50 91t-19 125zM413 266q0 58 -10 100.5t-24 65.5q-31 50 -92 50q-24 0 -49 -10
t-39 -36q-13 -24 -19.5 -65.5t-6.5 -92.5q0 -58 8 -101t20 -66q14 -26 38 -40t53 -14q23 0 47 10.5t40 35.5q16 26 25 68t9 95zM1061 207h87v-207h-473v71l313 398h-189l-24 -131h-87v202h456v-71l-312 -398h209zM978 629h-125l-88 151h83l68 -76l68 76h83z" />
    <glyph glyph-name="ellipsis" unicode="&#x2026;" horiz-adv-x="724" 
d="M45 52q0 38 21 59.5t57 21.5t57.5 -22t21.5 -58t-21 -57t-59 -21q-36 0 -56.5 20t-20.5 57zM288 52q0 38 21 59.5t57 21.5t57.5 -22t21.5 -58t-21 -57t-59 -21q-36 0 -56.5 20t-20.5 57zM522 52q0 38 21 59.5t57 21.5t57.5 -22t21.5 -58t-21 -57t-59 -21q-36 0 -56.5 20
t-20.5 57z" />
    <glyph glyph-name="six" unicode="6" horiz-adv-x="612" 
d="M177 351q28 37 75 58t102 21q48 0 87 -16t67 -44.5t43.5 -69.5t15.5 -90q0 -103 -64 -161.5t-175 -58.5q-143 0 -211.5 85.5t-68.5 264.5q0 192 71 291.5t216 99.5q46 0 84 -12t65 -34.5t42 -53.5t15 -68q0 -42 -18.5 -66t-62.5 -24q-41 0 -61 19t-20 48q0 28 18 44.5
t48 16.5q-6 28 -33.5 44t-67.5 16q-91 0 -132 -62.5t-41 -200.5v-24t2 -23h4zM430 210q0 148 -118 148q-55 0 -86.5 -37t-31.5 -111q0 -75 31.5 -112.5t86.5 -37.5q118 0 118 150z" />
    <glyph glyph-name="dotaccent.cap" horiz-adv-x="185" 
d="M15 817q0 36 21 57t56 21t56.5 -21.5t21.5 -56.5t-21 -56t-57 -21t-56.5 20.5t-20.5 56.5z" />
    <glyph glyph-name="dieresis.cap" horiz-adv-x="407" 
d="M11 812q0 36 21 57t56 21t56.5 -21.5t21.5 -56.5t-21 -56t-57 -21t-56.5 20.5t-20.5 56.5zM241 812q0 36 21 57t56 21t56.5 -21.5t21.5 -56.5t-21 -56t-57 -21t-56.5 20.5t-20.5 56.5z" />
    <glyph glyph-name="acute.cap" horiz-adv-x="259" 
d="M85 836q16 21 28.5 33.5t23 19t21.5 9t25 2.5q24 0 35.5 -12t11.5 -27q0 -10 -3 -17.5t-11.5 -15t-23 -17l-37.5 -23.5l-47 -28h-83z" />
    <glyph glyph-name="grave.cap" horiz-adv-x="259" 
d="M230 760h-83l-47 28l-38 23.5t-23 17t-11 15t-3 17.5q0 15 11.5 27t35.5 12q14 0 25 -2.5t21.5 -9t22.5 -19t29 -33.5z" />
    <glyph glyph-name="hungarumlaut.cap" horiz-adv-x="259" 
d="M85 836q16 21 28.5 33.5t23 19t21.5 9t25 2.5q24 0 35.5 -12t11.5 -27q0 -10 -3 -17.5t-11.5 -15t-23 -17l-37.5 -23.5l-47 -28h-83zM265 836q16 21 28.5 33.5t23 19t21.5 9t25 2.5q24 0 35.5 -12t11.5 -27q0 -10 -3 -17.5t-11.5 -15t-23 -17l-37.5 -23.5l-47 -28h-83z
" />
    <glyph glyph-name="tilde.cap" horiz-adv-x="398" 
d="M0 755q2 73 37 109t90 36q25 0 44 -8.5t35 -19t31.5 -19t35.5 -8.5q30 0 45 13t20 37h60q-21 -151 -127 -151q-25 0 -43.5 8.5t-35 19t-32.5 19.5t-35 9q-30 0 -45 -12t-20 -33h-60z" />
    <glyph glyph-name="breve.cap" horiz-adv-x="364" 
d="M344 899q-1 -43 -14 -76.5t-35 -57t-52.5 -35.5t-66.5 -12q-75 0 -115.5 50t-40.5 131h63q2 -44 28 -63t65 -19q50 0 77.5 19t27.5 63h63z" />
    <glyph glyph-name="ring.cap" horiz-adv-x="240" 
d="M29 824q0 38 26.5 57t63.5 19q38 0 64.5 -19t26.5 -57q0 -37 -26.5 -55.5t-64.5 -18.5q-37 0 -63.5 18.5t-26.5 55.5zM89 824q0 -30 30 -30q32 0 32 30q0 32 -32 32q-30 0 -30 -32z" />
    <glyph glyph-name="macron.cap" horiz-adv-x="329" 
d="M25 861h279v-95h-279v95z" />
    <glyph glyph-name="circumflex.cap" horiz-adv-x="352" 
d="M357 769h-83l-98 61l-98 -61h-83l118 121h125z" />
    <glyph glyph-name="caron.cap" horiz-adv-x="352" 
d="M238 769h-125l-118 121h83l98 -61l98 61h83z" />
    <glyph glyph-name="Idotaccent" unicode="&#x130;" horiz-adv-x="390" 
d="M260 79l94 -21v-58h-318v58l94 21v562l-94 21v58h318v-58l-94 -21v-562zM118 817q0 36 21 57t56 21t56.5 -21.5t21.5 -56.5t-21 -56t-57 -21t-56.5 20.5t-20.5 56.5z" />
    <glyph glyph-name="Cdotaccent" unicode="&#x10a;" 
d="M377 661q-38 0 -72.5 -16t-55.5 -46q-27 -39 -45.5 -97t-18.5 -130t15 -133.5t42 -103.5q22 -35 59 -50.5t85 -15.5q168 0 197 169h85q-25 -126 -99.5 -187t-204.5 -61q-138 0 -220 80q-49 48 -75 120.5t-26 162.5q0 101 33 182.5t93 131.5q76 63 201 63q31 0 55.5 -3.5
t45.5 -12t39.5 -22.5t37.5 -35l20 63h85v-236h-91q-14 88 -62.5 132.5t-122.5 44.5zM310 817q0 36 21 57t56 21t56.5 -21.5t21.5 -56.5t-21 -56t-57 -21t-56.5 20.5t-20.5 56.5z" />
    <glyph glyph-name="Gdotaccent" unicode="&#x120;" horiz-adv-x="765" 
d="M378 70q85 0 121 42t36 126v40l-84 21v60h298v-60l-84 -21v-278h-82l-25 79q-44 -48 -90 -68.5t-109 -20.5q-137 0 -219 84q-47 48 -72 119t-25 159q0 89 26.5 165t74.5 127q41 43 96.5 64.5t132.5 21.5q30 0 54 -4t44.5 -12.5t39 -22t37.5 -33.5l20 62h85v-236h-91
q-14 81 -59 129t-126 48q-45 0 -75 -15t-52 -43q-28 -42 -47 -103.5t-19 -133.5q0 -71 17.5 -135.5t49.5 -108.5q20 -27 53.5 -39.5t73.5 -12.5zM302 817q0 36 21 57t56 21t56.5 -21.5t21.5 -56.5t-21 -56t-57 -21t-56.5 20.5t-20.5 56.5z" />
    <glyph glyph-name="Zdotaccent" unicode="&#x17b;" horiz-adv-x="659" 
d="M534 238h87v-238h-593v61l415 584h-270l-32 -152h-82v227h539v-61l-415 -584h319zM258 817q0 36 21 57t56 21t56.5 -21.5t21.5 -56.5t-21 -56t-57 -21t-56.5 20.5t-20.5 56.5z" />
    <glyph glyph-name="Ndotaccent" unicode="&#x1e44;" horiz-adv-x="817" 
d="M125 641l-84 21v58h231l334 -528v449l-84 21v58h263v-58l-84 -21v-641h-111l-370 574v-495l84 -21v-58h-263v58l84 21v562zM331 817q0 36 21 57t56 21t56.5 -21.5t21.5 -56.5t-21 -56t-57 -21t-56.5 20.5t-20.5 56.5z" />
    <glyph glyph-name="Idieresis" unicode="&#xcf;" horiz-adv-x="390" 
d="M260 79l94 -21v-58h-318v58l94 21v562l-94 21v58h318v-58l-94 -21v-562z" />
    <glyph glyph-name="Odieresis" unicode="&#xd6;" horiz-adv-x="774" 
d="M731 368q0 -84 -24 -160.5t-76 -130.5q-43 -45 -102.5 -66t-144.5 -21t-144.5 21t-100.5 63q-44 45 -70 117.5t-26 160.5t26 164t74 127q42 45 100.5 66t143.5 21q81 0 141.5 -19.5t105.5 -64.5q52 -52 74.5 -125.5t22.5 -152.5zM188 371q0 -78 14.5 -138t39.5 -98
q24 -37 59.5 -56t88.5 -19q94 0 142 66q26 35 40 91.5t14 136.5q0 79 -14.5 137t-40.5 96t-63.5 56t-84.5 18q-48 0 -82 -17.5t-57 -48.5q-56 -74 -56 -224z" />
    <glyph glyph-name="Edieresis" unicode="&#xcb;" 
d="M414 238l-17 94h-137v-257h275l28 148h88v-223h-615v58l94 21v562l-94 21v58h593v-212h-82l-29 139h-258v-240h137l17 95h81v-264h-81z" />
    <glyph glyph-name="Udieresis" unicode="&#xdc;" horiz-adv-x="784" 
d="M584 641l-84 21v58h261v-58l-84 -21v-398q0 -125 -74 -189.5t-219 -64.5q-134 0 -205 66t-71 189v397l-84 21v58h298v-58l-84 -21v-365q0 -217 168 -217q94 0 136 50.5t42 164.5v367z" />
    <glyph glyph-name="Adieresis" unicode="&#xc4;" horiz-adv-x="728" 
d="M464 234h-244l-52 -155l83 -21v-58h-264v58l82 21l234 651h123l232 -651l80 -21v-58h-305v58l82 21zM245 307h195l-93 291h-4z" />
    <glyph glyph-name="Wdieresis" unicode="&#x1e84;" horiz-adv-x="1051" 
d="M878 642l-79 20v58h259v-58l-83 -21l-185 -641h-134l-131 431l-119 -431h-134l-205 641l-78 21v58h314v-58l-96 -21l142 -513h4l126 468l-9 45l-78 21v58h294v-58l-92 -21l139 -514h4z" />
    <glyph glyph-name="Ydieresis" unicode="&#x178;" horiz-adv-x="682" 
d="M512 641l-81 21v58h257v-58l-82 -21l-196 -359v-203l94 -21v-58h-318v58l94 21v187l-207 375l-83 21v58h306v-58l-84 -21l148 -278z" />
    <glyph glyph-name="Iacute" unicode="&#xcd;" horiz-adv-x="390" 
d="M260 79l94 -21v-58h-318v58l94 21v562l-94 21v58h318v-58l-94 -21v-562zM213 836q16 21 28.5 33.5t23 19t21.5 9t25 2.5q24 0 35.5 -12t11.5 -27q0 -10 -3 -17.5t-11.5 -15t-23 -17l-37.5 -23.5l-47 -28h-83z" />
    <glyph glyph-name="Oacute" unicode="&#xd3;" horiz-adv-x="774" 
d="M731 368q0 -84 -24 -160.5t-76 -130.5q-43 -45 -102.5 -66t-144.5 -21t-144.5 21t-100.5 63q-44 45 -70 117.5t-26 160.5t26 164t74 127q42 45 100.5 66t143.5 21q81 0 141.5 -19.5t105.5 -64.5q52 -52 74.5 -125.5t22.5 -152.5zM188 371q0 -78 14.5 -138t39.5 -98
q24 -37 59.5 -56t88.5 -19q94 0 142 66q26 35 40 91.5t14 136.5q0 79 -14.5 137t-40.5 96t-63.5 56t-84.5 18q-48 0 -82 -17.5t-57 -48.5q-56 -74 -56 -224zM405 836q16 21 28.5 33.5t23 19t21.5 9t25 2.5q24 0 35.5 -12t11.5 -27q0 -10 -3 -17.5t-11.5 -15t-23 -17
l-37.5 -23.5l-47 -28h-83z" />
    <glyph glyph-name="Eacute" unicode="&#xc9;" 
d="M414 238l-17 94h-137v-257h275l28 148h88v-223h-615v58l94 21v562l-94 21v58h593v-212h-82l-29 139h-258v-240h137l17 95h81v-264h-81zM372 836q16 21 28.5 33.5t23 19t21.5 9t25 2.5q24 0 35.5 -12t11.5 -27q0 -10 -3 -17.5t-11.5 -15t-23 -17l-37.5 -23.5l-47 -28h-83z
" />
    <glyph glyph-name="Racute" unicode="&#x154;" horiz-adv-x="717" 
d="M566 382q-18 -14 -40.5 -27t-57.5 -21q5 -5 15.5 -17.5t21.5 -29.5l124 -210l89 -19v-58h-236v58l-131 257h-96v-236l95 -21v-58h-309v58l84 21v562l-84 21v58h374q48 0 84 -9t65 -29q36 -26 57 -67t21 -83t-20.5 -82.5t-55.5 -67.5zM368 388q55 0 91 31q20 17 31.5 45.5
t11.5 61.5q0 30 -12 54t-32 41q-33 26 -94 26h-109v-259h113zM335 836q16 21 28.5 33.5t23 19t21.5 9t25 2.5q24 0 35.5 -12t11.5 -27q0 -10 -3 -17.5t-11.5 -15t-23 -17l-37.5 -23.5l-47 -28h-83z" />
    <glyph glyph-name="Lacute" unicode="&#x139;" horiz-adv-x="645" 
d="M260 75h242l34 173h85v-248h-585v58l94 21v562l-94 21v58h328v-58l-104 -21v-566zM212 836q16 21 28.5 33.5t23 19t21.5 9t25 2.5q24 0 35.5 -12t11.5 -27q0 -10 -3 -17.5t-11.5 -15t-23 -17l-37.5 -23.5l-47 -28h-83z" />
    <glyph glyph-name="Cacute" unicode="&#x106;" 
d="M377 661q-38 0 -72.5 -16t-55.5 -46q-27 -39 -45.5 -97t-18.5 -130t15 -133.5t42 -103.5q22 -35 59 -50.5t85 -15.5q168 0 197 169h85q-25 -126 -99.5 -187t-204.5 -61q-138 0 -220 80q-49 48 -75 120.5t-26 162.5q0 101 33 182.5t93 131.5q76 63 201 63q31 0 55.5 -3.5
t45.5 -12t39.5 -22.5t37.5 -35l20 63h85v-236h-91q-14 88 -62.5 132.5t-122.5 44.5zM405 836q16 21 28.5 33.5t23 19t21.5 9t25 2.5q24 0 35.5 -12t11.5 -27q0 -10 -3 -17.5t-11.5 -15t-23 -17l-37.5 -23.5l-47 -28h-83z" />
    <glyph glyph-name="Zacute" unicode="&#x179;" horiz-adv-x="659" 
d="M534 238h87v-238h-593v61l415 584h-270l-32 -152h-82v227h539v-61l-415 -584h319zM353 836q16 21 28.5 33.5t23 19t21.5 9t25 2.5q24 0 35.5 -12t11.5 -27q0 -10 -3 -17.5t-11.5 -15t-23 -17l-37.5 -23.5l-47 -28h-83z" />
    <glyph glyph-name="Uacute" unicode="&#xda;" horiz-adv-x="784" 
d="M584 641l-84 21v58h261v-58l-84 -21v-398q0 -125 -74 -189.5t-219 -64.5q-134 0 -205 66t-71 189v397l-84 21v58h298v-58l-84 -21v-365q0 -217 168 -217q94 0 136 50.5t42 164.5v367zM430 836q16 21 28.5 33.5t23 19t21.5 9t25 2.5q24 0 35.5 -12t11.5 -27
q0 -10 -3 -17.5t-11.5 -15t-23 -17l-37.5 -23.5l-47 -28h-83z" />
    <glyph glyph-name="Nacute" unicode="&#x143;" horiz-adv-x="817" 
d="M125 641l-84 21v58h231l334 -528v449l-84 21v58h263v-58l-84 -21v-641h-111l-370 574v-495l84 -21v-58h-263v58l84 21v562zM426 836q16 21 28.5 33.5t23 19t21.5 9t25 2.5q24 0 35.5 -12t11.5 -27q0 -10 -3 -17.5t-11.5 -15t-23 -17l-37.5 -23.5l-47 -28h-83z" />
    <glyph glyph-name="Aacute" unicode="&#xc1;" horiz-adv-x="728" 
d="M464 234h-244l-52 -155l83 -21v-58h-264v58l82 21l234 651h123l232 -651l80 -21v-58h-305v58l82 21zM245 307h195l-93 291h-4zM383 836q16 21 28.5 33.5t23 19t21.5 9t25 2.5q24 0 35.5 -12t11.5 -27q0 -10 -3 -17.5t-11.5 -15t-23 -17l-37.5 -23.5l-47 -28h-83z" />
    <glyph glyph-name="Wacute" unicode="&#x1e82;" horiz-adv-x="1051" 
d="M878 642l-79 20v58h259v-58l-83 -21l-185 -641h-134l-131 431l-119 -431h-134l-205 641l-78 21v58h314v-58l-96 -21l142 -513h4l126 468l-9 45l-78 21v58h294v-58l-92 -21l139 -514h4zM547 836q16 21 28.5 33.5t23 19t21.5 9t25 2.5q24 0 35.5 -12t11.5 -27
q0 -10 -3 -17.5t-11.5 -15t-23 -17l-37.5 -23.5l-47 -28h-83z" />
    <glyph glyph-name="Yacute" unicode="&#xdd;" horiz-adv-x="682" 
d="M512 641l-81 21v58h257v-58l-82 -21l-196 -359v-203l94 -21v-58h-318v58l94 21v187l-207 375l-83 21v58h306v-58l-84 -21l148 -278zM379 836q16 21 28.5 33.5t23 19t21.5 9t25 2.5q24 0 35.5 -12t11.5 -27q0 -10 -3 -17.5t-11.5 -15t-23 -17l-37.5 -23.5l-47 -28h-83z
" />
    <glyph glyph-name="Sacute" unicode="&#x15a;" horiz-adv-x="613" 
d="M322 -11q-57 0 -96.5 16.5t-70.5 52.5l-11 -58h-86v242h91q3 -50 15.5 -85t33.5 -57t49.5 -31.5t64.5 -9.5q57 0 91 23.5t34 74.5q0 31 -13 53t-37 39.5t-57 32.5l-73 32q-47 19 -83.5 38.5t-61.5 44t-38 56t-13 75.5q0 97 59.5 150t159.5 53q99 0 161 -56l8 45h86v-242
h-87q0 94 -35 139t-108 45q-113 0 -113 -107q0 -26 7.5 -44t25 -32.5t46 -28.5l70.5 -33q63 -29 106.5 -54t70 -51t38.5 -55t12 -66q0 -50 -19 -88t-52.5 -63.5t-78.5 -38t-96 -12.5zM313 836q16 21 28.5 33.5t23 19t21.5 9t25 2.5q24 0 35.5 -12t11.5 -27q0 -10 -3 -17.5
t-11.5 -15t-23 -17l-37.5 -23.5l-47 -28h-83z" />
    <glyph glyph-name="Igrave" unicode="&#xcc;" horiz-adv-x="390" 
d="M260 79l94 -21v-58h-318v58l94 21v562l-94 21v58h318v-58l-94 -21v-562zM280 760h-83l-47 28l-38 23.5t-23 17t-11 15t-3 17.5q0 15 11.5 27t35.5 12q14 0 25 -2.5t21.5 -9t22.5 -19t29 -33.5z" />
    <glyph glyph-name="Ograve" unicode="&#xd2;" horiz-adv-x="774" 
d="M731 368q0 -84 -24 -160.5t-76 -130.5q-43 -45 -102.5 -66t-144.5 -21t-144.5 21t-100.5 63q-44 45 -70 117.5t-26 160.5t26 164t74 127q42 45 100.5 66t143.5 21q81 0 141.5 -19.5t105.5 -64.5q52 -52 74.5 -125.5t22.5 -152.5zM188 371q0 -78 14.5 -138t39.5 -98
q24 -37 59.5 -56t88.5 -19q94 0 142 66q26 35 40 91.5t14 136.5q0 79 -14.5 137t-40.5 96t-63.5 56t-84.5 18q-48 0 -82 -17.5t-57 -48.5q-56 -74 -56 -224zM475 760h-83l-47 28l-38 23.5t-23 17t-11 15t-3 17.5q0 15 11.5 27t35.5 12q14 0 25 -2.5t21.5 -9t22.5 -19
t29 -33.5z" />
    <glyph glyph-name="Egrave" unicode="&#xc8;" 
d="M414 238l-17 94h-137v-257h275l28 148h88v-223h-615v58l94 21v562l-94 21v58h593v-212h-82l-29 139h-258v-240h137l17 95h81v-264h-81zM440 760h-83l-47 28l-38 23.5t-23 17t-11 15t-3 17.5q0 15 11.5 27t35.5 12q14 0 25 -2.5t21.5 -9t22.5 -19t29 -33.5z" />
    <glyph glyph-name="Ugrave" unicode="&#xd9;" horiz-adv-x="784" 
d="M584 641l-84 21v58h261v-58l-84 -21v-398q0 -125 -74 -189.5t-219 -64.5q-134 0 -205 66t-71 189v397l-84 21v58h298v-58l-84 -21v-365q0 -217 168 -217q94 0 136 50.5t42 164.5v367zM499 760h-83l-47 28l-38 23.5t-23 17t-11 15t-3 17.5q0 15 11.5 27t35.5 12
q14 0 25 -2.5t21.5 -9t22.5 -19t29 -33.5z" />
    <glyph glyph-name="Agrave" unicode="&#xc0;" horiz-adv-x="728" 
d="M464 234h-244l-52 -155l83 -21v-58h-264v58l82 21l234 651h123l232 -651l80 -21v-58h-305v58l82 21zM245 307h195l-93 291h-4zM428 760h-83l-47 28l-38 23.5t-23 17t-11 15t-3 17.5q0 15 11.5 27t35.5 12q14 0 25 -2.5t21.5 -9t22.5 -19t29 -33.5z" />
    <glyph glyph-name="Wgrave" unicode="&#x1e80;" horiz-adv-x="1051" 
d="M878 642l-79 20v58h259v-58l-83 -21l-185 -641h-134l-131 431l-119 -431h-134l-205 641l-78 21v58h314v-58l-96 -21l142 -513h4l126 468l-9 45l-78 21v58h294v-58l-92 -21l139 -514h4zM600 760h-83l-47 28l-38 23.5t-23 17t-11 15t-3 17.5q0 15 11.5 27t35.5 12
q14 0 25 -2.5t21.5 -9t22.5 -19t29 -33.5z" />
    <glyph glyph-name="Ygrave" unicode="&#x1ef2;" horiz-adv-x="682" 
d="M512 641l-81 21v58h257v-58l-82 -21l-196 -359v-203l94 -21v-58h-318v58l94 21v187l-207 375l-83 21v58h306v-58l-84 -21l148 -278zM436 760h-83l-47 28l-38 23.5t-23 17t-11 15t-3 17.5q0 15 11.5 27t35.5 12q14 0 25 -2.5t21.5 -9t22.5 -19t29 -33.5z" />
    <glyph glyph-name="Ohungarumlaut" unicode="&#x150;" horiz-adv-x="774" 
d="M731 368q0 -84 -24 -160.5t-76 -130.5q-43 -45 -102.5 -66t-144.5 -21t-144.5 21t-100.5 63q-44 45 -70 117.5t-26 160.5t26 164t74 127q42 45 100.5 66t143.5 21q81 0 141.5 -19.5t105.5 -64.5q52 -52 74.5 -125.5t22.5 -152.5zM188 371q0 -78 14.5 -138t39.5 -98
q24 -37 59.5 -56t88.5 -19q94 0 142 66q26 35 40 91.5t14 136.5q0 79 -14.5 137t-40.5 96t-63.5 56t-84.5 18q-48 0 -82 -17.5t-57 -48.5q-56 -74 -56 -224z" />
    <glyph glyph-name="Uhungarumlaut" unicode="&#x170;" horiz-adv-x="784" 
d="M584 641l-84 21v58h261v-58l-84 -21v-398q0 -125 -74 -189.5t-219 -64.5q-134 0 -205 66t-71 189v397l-84 21v58h298v-58l-84 -21v-365q0 -217 168 -217q94 0 136 50.5t42 164.5v367z" />
    <glyph glyph-name="lacute" unicode="&#x13a;" horiz-adv-x="290" 
d="M169 847q21 27 38.5 37.5t36.5 10.5q37 0 37 -30q0 -16 -17.5 -29.5t-55.5 -36.5l-47 -29h-53zM96 660l-77 19v41h174v-660l77 -19v-41h-251v41l77 19v600z" />
    <glyph glyph-name="Itilde" unicode="&#x128;" horiz-adv-x="390" 
d="M260 79l94 -21v-58h-318v58l94 21v562l-94 21v58h318v-58l-94 -21v-562zM-4 755q2 73 37 109t90 36q25 0 44 -8.5t35 -19t31.5 -19t35.5 -8.5q30 0 45 13t20 37h60q-21 -151 -127 -151q-25 0 -43.5 8.5t-35 19t-32.5 19.5t-35 9q-30 0 -45 -12t-20 -33h-60z" />
    <glyph glyph-name="Otilde" unicode="&#xd5;" horiz-adv-x="774" 
d="M731 368q0 -84 -24 -160.5t-76 -130.5q-43 -45 -102.5 -66t-144.5 -21t-144.5 21t-100.5 63q-44 45 -70 117.5t-26 160.5t26 164t74 127q42 45 100.5 66t143.5 21q81 0 141.5 -19.5t105.5 -64.5q52 -52 74.5 -125.5t22.5 -152.5zM188 371q0 -78 14.5 -138t39.5 -98
q24 -37 59.5 -56t88.5 -19q94 0 142 66q26 35 40 91.5t14 136.5q0 79 -14.5 137t-40.5 96t-63.5 56t-84.5 18q-48 0 -82 -17.5t-57 -48.5q-56 -74 -56 -224zM188 755q2 73 37 109t90 36q25 0 44 -8.5t35 -19t31.5 -19t35.5 -8.5q30 0 45 13t20 37h60q-21 -151 -127 -151
q-25 0 -43.5 8.5t-35 19t-32.5 19.5t-35 9q-30 0 -45 -12t-20 -33h-60z" />
    <glyph glyph-name="Etilde" unicode="&#x1ebc;" 
d="M414 238l-17 94h-137v-257h275l28 148h88v-223h-615v58l94 21v562l-94 21v58h593v-212h-82l-29 139h-258v-240h137l17 95h81v-264h-81zM155 755q2 73 37 109t90 36q25 0 44 -8.5t35 -19t31.5 -19t35.5 -8.5q30 0 45 13t20 37h60q-21 -151 -127 -151q-25 0 -43.5 8.5
t-35 19t-32.5 19.5t-35 9q-30 0 -45 -12t-20 -33h-60z" />
    <glyph glyph-name="Utilde" unicode="&#x168;" horiz-adv-x="784" 
d="M584 641l-84 21v58h261v-58l-84 -21v-398q0 -125 -74 -189.5t-219 -64.5q-134 0 -205 66t-71 189v397l-84 21v58h298v-58l-84 -21v-365q0 -217 168 -217q94 0 136 50.5t42 164.5v367zM213 755q2 73 37 109t90 36q25 0 44 -8.5t35 -19t31.5 -19t35.5 -8.5q30 0 45 13
t20 37h60q-21 -151 -127 -151q-25 0 -43.5 8.5t-35 19t-32.5 19.5t-35 9q-30 0 -45 -12t-20 -33h-60z" />
    <glyph glyph-name="Ntilde" unicode="&#xd1;" horiz-adv-x="817" 
d="M125 641l-84 21v58h231l334 -528v449l-84 21v58h263v-58l-84 -21v-641h-111l-370 574v-495l84 -21v-58h-263v58l84 21v562zM209 755q2 73 37 109t90 36q25 0 44 -8.5t35 -19t31.5 -19t35.5 -8.5q30 0 45 13t20 37h60q-21 -151 -127 -151q-25 0 -43.5 8.5t-35 19
t-32.5 19.5t-35 9q-30 0 -45 -12t-20 -33h-60z" />
    <glyph glyph-name="Atilde" unicode="&#xc3;" horiz-adv-x="728" 
d="M464 234h-244l-52 -155l83 -21v-58h-264v58l82 21l234 651h123l232 -651l80 -21v-58h-305v58l82 21zM245 307h195l-93 291h-4zM166 755q2 73 37 109t90 36q25 0 44 -8.5t35 -19t31.5 -19t35.5 -8.5q30 0 45 13t20 37h60q-21 -151 -127 -151q-25 0 -43.5 8.5t-35 19
t-32.5 19.5t-35 9q-30 0 -45 -12t-20 -33h-60z" />
    <glyph glyph-name="Ytilde" unicode="&#x1ef8;" horiz-adv-x="682" 
d="M512 641l-81 21v58h257v-58l-82 -21l-196 -359v-203l94 -21v-58h-318v58l94 21v187l-207 375l-83 21v58h306v-58l-84 -21l148 -278zM162 755q2 73 37 109t90 36q25 0 44 -8.5t35 -19t31.5 -19t35.5 -8.5q30 0 45 13t20 37h60q-21 -151 -127 -151q-25 0 -43.5 8.5t-35 19
t-32.5 19.5t-35 9q-30 0 -45 -12t-20 -33h-60z" />
    <glyph glyph-name="Obreve" unicode="&#x14e;" horiz-adv-x="774" 
d="M555 899q-2 -68 -32 -111.5t-78 -60.5q59 -6 105.5 -25.5t83.5 -55.5q52 -52 74.5 -125.5t22.5 -152.5q0 -84 -24 -160.5t-76 -130.5q-43 -45 -102.5 -66t-144.5 -21t-144.5 21t-100.5 63q-44 45 -70 117.5t-26 160.5t26 164t74 127q35 37 80 57.5t107 26.5
q-48 17 -73.5 62t-25.5 110h63q2 -44 28 -63t65 -19q50 0 77.5 19t27.5 63h63zM188 371q0 -78 14.5 -138t39.5 -98q24 -37 59.5 -56t88.5 -19q94 0 142 66q26 35 40 91.5t14 136.5q0 79 -14.5 137t-40.5 96t-63.5 56t-84.5 18q-48 0 -82 -17.5t-57 -48.5q-56 -74 -56 -224z
" />
    <glyph glyph-name="Ebreve" unicode="&#x114;" 
d="M522 899q-2 -78 -40.5 -124t-99.5 -55h247v-212h-82l-29 139h-258v-240h137l17 95h81v-264h-81l-17 94h-137v-257h275l28 148h88v-223h-615v58l94 21v562l-94 21v58h289q-62 10 -94.5 58t-32.5 121h63q2 -44 28 -63t65 -19q50 0 77.5 19t27.5 63h63z" />
    <glyph glyph-name="Gbreve" unicode="&#x11e;" horiz-adv-x="765" 
d="M547 899q-2 -69 -33.5 -113.5t-82.5 -60.5q35 -6 62 -22t55 -45l20 62h85v-236h-91q-14 81 -59 129t-126 48q-45 0 -75 -15t-52 -43q-28 -42 -47 -103.5t-19 -133.5q0 -71 17.5 -135.5t49.5 -108.5q20 -27 53.5 -39.5t73.5 -12.5q85 0 121 42t36 126v40l-84 21v60h298
v-60l-84 -21v-278h-82l-25 79q-44 -48 -90 -68.5t-109 -20.5q-137 0 -219 84q-47 48 -72 119t-25 159q0 89 26.5 165t74.5 127q33 35 76.5 56t100.5 27q-48 17 -73 62.5t-25 109.5h63q2 -44 28 -63t65 -19q50 0 77.5 19t27.5 63h63z" />
    <glyph glyph-name="Ubreve" unicode="&#x16c;" horiz-adv-x="784" 
d="M584 641l-84 21v58h261v-58l-84 -21v-398q0 -125 -74 -189.5t-219 -64.5q-134 0 -205 66t-71 189v397l-84 21v58h298v-58l-84 -21v-365q0 -217 168 -217q94 0 136 50.5t42 164.5v367zM580 899q-1 -43 -14 -76.5t-35 -57t-52.5 -35.5t-66.5 -12q-75 0 -115.5 50t-40.5 131
h63q2 -44 28 -63t65 -19q50 0 77.5 19t27.5 63h63z" />
    <glyph glyph-name="Abreve" unicode="&#x102;" horiz-adv-x="728" 
d="M533 899q-2 -66 -30.5 -110t-76.5 -61l232 -649l80 -21v-58h-305v58l82 21l-51 155h-244l-52 -155l83 -21v-58h-264v58l82 21l233 650q-45 18 -69 62.5t-24 107.5h63q2 -44 28 -63t65 -19q50 0 77.5 19t27.5 63h63zM245 307h195l-93 291h-4z" />
    <glyph glyph-name="Aring" unicode="&#xc5;" horiz-adv-x="728" 
d="M464 234h-244l-52 -155l83 -21v-58h-264v58l82 21l234 651h123l232 -651l80 -21v-58h-305v58l82 21zM245 307h195l-93 291h-4zM275 824q0 38 26.5 57t63.5 19q38 0 64.5 -19t26.5 -57q0 -37 -26.5 -55.5t-64.5 -18.5q-37 0 -63.5 18.5t-26.5 55.5zM335 824q0 -30 30 -30
q32 0 32 30q0 32 -32 32q-30 0 -30 -32z" />
    <glyph glyph-name="Imacron" unicode="&#x12a;" horiz-adv-x="390" 
d="M260 79l94 -21v-58h-318v58l94 21v562l-94 21v58h318v-58l-94 -21v-562z" />
    <glyph glyph-name="Omacron" unicode="&#x14c;" horiz-adv-x="774" 
d="M731 368q0 -84 -24 -160.5t-76 -130.5q-43 -45 -102.5 -66t-144.5 -21t-144.5 21t-100.5 63q-44 45 -70 117.5t-26 160.5t26 164t74 127q42 45 100.5 66t143.5 21q81 0 141.5 -19.5t105.5 -64.5q52 -52 74.5 -125.5t22.5 -152.5zM188 371q0 -78 14.5 -138t39.5 -98
q24 -37 59.5 -56t88.5 -19q94 0 142 66q26 35 40 91.5t14 136.5q0 79 -14.5 137t-40.5 96t-63.5 56t-84.5 18q-48 0 -82 -17.5t-57 -48.5q-56 -74 -56 -224z" />
    <glyph glyph-name="Emacron" unicode="&#x112;" 
d="M414 238l-17 94h-137v-257h275l28 148h88v-223h-615v58l94 21v562l-94 21v58h593v-212h-82l-29 139h-258v-240h137l17 95h81v-264h-81z" />
    <glyph glyph-name="Umacron" unicode="&#x16a;" horiz-adv-x="784" 
d="M584 641l-84 21v58h261v-58l-84 -21v-398q0 -125 -74 -189.5t-219 -64.5q-134 0 -205 66t-71 189v397l-84 21v58h298v-58l-84 -21v-365q0 -217 168 -217q94 0 136 50.5t42 164.5v367z" />
    <glyph glyph-name="Amacron" unicode="&#x100;" horiz-adv-x="728" 
d="M464 234h-244l-52 -155l83 -21v-58h-264v58l82 21l234 651h123l232 -651l80 -21v-58h-305v58l82 21zM245 307h195l-93 291h-4z" />
    <glyph glyph-name="Icircumflex" unicode="&#xce;" horiz-adv-x="390" 
d="M260 79l94 -21v-58h-318v58l94 21v562l-94 21v58h318v-58l-94 -21v-562zM376 769h-83l-98 61l-98 -61h-83l118 121h125z" />
    <glyph glyph-name="Hcircumflex" unicode="&#x124;" horiz-adv-x="819" 
d="M694 79l84 -21v-58h-298v58l84 21v254h-309v-254l84 -21v-58h-298v58l84 21v562l-84 21v58h298v-58l-84 -21v-235h309v235l-84 21v58h298v-58l-84 -21v-562zM594 769h-83l-98 61l-98 -61h-83l118 121h125z" />
    <glyph glyph-name="Ocircumflex" unicode="&#xd4;" horiz-adv-x="774" 
d="M731 368q0 -84 -24 -160.5t-76 -130.5q-43 -45 -102.5 -66t-144.5 -21t-144.5 21t-100.5 63q-44 45 -70 117.5t-26 160.5t26 164t74 127q42 45 100.5 66t143.5 21q81 0 141.5 -19.5t105.5 -64.5q52 -52 74.5 -125.5t22.5 -152.5zM188 371q0 -78 14.5 -138t39.5 -98
q24 -37 59.5 -56t88.5 -19q94 0 142 66q26 35 40 91.5t14 136.5q0 79 -14.5 137t-40.5 96t-63.5 56t-84.5 18q-48 0 -82 -17.5t-57 -48.5q-56 -74 -56 -224zM568 769h-83l-98 61l-98 -61h-83l118 121h125z" />
    <glyph glyph-name="Ecircumflex" unicode="&#xca;" 
d="M414 238l-17 94h-137v-257h275l28 148h88v-223h-615v58l94 21v562l-94 21v58h593v-212h-82l-29 139h-258v-240h137l17 95h81v-264h-81zM535 769h-83l-98 61l-98 -61h-83l118 121h125z" />
    <glyph glyph-name="Ccircumflex" unicode="&#x108;" 
d="M377 661q-38 0 -72.5 -16t-55.5 -46q-27 -39 -45.5 -97t-18.5 -130t15 -133.5t42 -103.5q22 -35 59 -50.5t85 -15.5q168 0 197 169h85q-25 -126 -99.5 -187t-204.5 -61q-138 0 -220 80q-49 48 -75 120.5t-26 162.5q0 101 33 182.5t93 131.5q76 63 201 63q31 0 55.5 -3.5
t45.5 -12t39.5 -22.5t37.5 -35l20 63h85v-236h-91q-14 88 -62.5 132.5t-122.5 44.5zM568 769h-83l-98 61l-98 -61h-83l118 121h125z" />
    <glyph glyph-name="Gcircumflex" unicode="&#x11c;" horiz-adv-x="765" 
d="M378 70q85 0 121 42t36 126v40l-84 21v60h298v-60l-84 -21v-278h-82l-25 79q-44 -48 -90 -68.5t-109 -20.5q-137 0 -219 84q-47 48 -72 119t-25 159q0 89 26.5 165t74.5 127q41 43 96.5 64.5t132.5 21.5q30 0 54 -4t44.5 -12.5t39 -22t37.5 -33.5l20 62h85v-236h-91
q-14 81 -59 129t-126 48q-45 0 -75 -15t-52 -43q-28 -42 -47 -103.5t-19 -133.5q0 -71 17.5 -135.5t49.5 -108.5q20 -27 53.5 -39.5t73.5 -12.5zM560 769h-83l-98 61l-98 -61h-83l118 121h125z" />
    <glyph glyph-name="Jcircumflex" unicode="&#x134;" horiz-adv-x="597" 
d="M355 641l-99 21v58h308v-58l-79 -21v-423q0 -52 -17 -94t-48 -72t-74.5 -46.5t-96.5 -16.5q-54 0 -98 13t-76 37t-49.5 57t-17.5 74q0 46 20 75t60 29q35 0 57 -20t22 -53q0 -23 -13 -46.5t-30 -31.5q5 -26 33.5 -43.5t82.5 -17.5q55 0 85 36t30 109v434zM603 769h-83
l-98 61l-98 -61h-83l118 121h125z" />
    <glyph glyph-name="Ucircumflex" unicode="&#xdb;" horiz-adv-x="784" 
d="M584 641l-84 21v58h261v-58l-84 -21v-398q0 -125 -74 -189.5t-219 -64.5q-134 0 -205 66t-71 189v397l-84 21v58h298v-58l-84 -21v-365q0 -217 168 -217q94 0 136 50.5t42 164.5v367zM593 769h-83l-98 61l-98 -61h-83l118 121h125z" />
    <glyph glyph-name="Acircumflex" unicode="&#xc2;" horiz-adv-x="728" 
d="M464 234h-244l-52 -155l83 -21v-58h-264v58l82 21l234 651h123l232 -651l80 -21v-58h-305v58l82 21zM245 307h195l-93 291h-4zM546 769h-83l-98 61l-98 -61h-83l118 121h125z" />
    <glyph glyph-name="Wcircumflex" unicode="&#x174;" horiz-adv-x="1051" 
d="M878 642l-79 20v58h259v-58l-83 -21l-185 -641h-134l-131 431l-119 -431h-134l-205 641l-78 21v58h314v-58l-96 -21l142 -513h4l126 468l-9 45l-78 21v58h294v-58l-92 -21l139 -514h4zM710 769h-83l-98 61l-98 -61h-83l118 121h125z" />
    <glyph glyph-name="Ycircumflex" unicode="&#x176;" horiz-adv-x="682" 
d="M512 641l-81 21v58h257v-58l-82 -21l-196 -359v-203l94 -21v-58h-318v58l94 21v187l-207 375l-83 21v58h306v-58l-84 -21l148 -278zM542 770h-83l-98 61l-98 -61h-83l118 121h125z" />
    <glyph glyph-name="Scircumflex" unicode="&#x15c;" horiz-adv-x="613" 
d="M322 -11q-57 0 -96.5 16.5t-70.5 52.5l-11 -58h-86v242h91q3 -50 15.5 -85t33.5 -57t49.5 -31.5t64.5 -9.5q57 0 91 23.5t34 74.5q0 31 -13 53t-37 39.5t-57 32.5l-73 32q-47 19 -83.5 38.5t-61.5 44t-38 56t-13 75.5q0 97 59.5 150t159.5 53q99 0 161 -56l8 45h86v-242
h-87q0 94 -35 139t-108 45q-113 0 -113 -107q0 -26 7.5 -44t25 -32.5t46 -28.5l70.5 -33q63 -29 106.5 -54t70 -51t38.5 -55t12 -66q0 -50 -19 -88t-52.5 -63.5t-78.5 -38t-96 -12.5zM476 769h-83l-98 61l-98 -61h-83l118 121h125z" />
    <glyph glyph-name="Ibreve" unicode="&#x12c;" horiz-adv-x="390" 
d="M348 899q-2 -78 -40.5 -124t-99.5 -55h146v-58l-94 -21v-562l94 -21v-58h-318v58l94 21v562l-94 21v58h115q-62 10 -94.5 58t-32.5 121h63q2 -44 28 -63t65 -19q50 0 77.5 19t27.5 63h63z" />
    <glyph glyph-name="Dcaron" unicode="&#x10e;" horiz-adv-x="779" 
d="M380 75q54 0 92 16.5t64 49.5q27 34 41 86.5t14 126.5q0 142 -55 217q-27 37 -67.5 55.5t-98.5 18.5h-115v-570h125zM407 720q149 0 232 -84q47 -48 72 -118t25 -150q0 -85 -26 -158t-74 -123q-42 -45 -100 -66t-138 -21h-357v58l84 21v562l-84 21v58h366zM432 769h-125
l-118 121h83l98 -61l98 61h83z" />
    <glyph glyph-name="Ecaron" unicode="&#x11a;" 
d="M414 238l-17 94h-137v-257h275l28 148h88v-223h-615v58l94 21v562l-94 21v58h593v-212h-82l-29 139h-258v-240h137l17 95h81v-264h-81zM435 769h-125l-118 121h83l98 -61l98 61h83z" />
    <glyph glyph-name="Rcaron" unicode="&#x158;" horiz-adv-x="717" 
d="M566 382q-18 -14 -40.5 -27t-57.5 -21q5 -5 15.5 -17.5t21.5 -29.5l124 -210l89 -19v-58h-236v58l-131 257h-96v-236l95 -21v-58h-309v58l84 21v562l-84 21v58h374q48 0 84 -9t65 -29q36 -26 57 -67t21 -83t-20.5 -82.5t-55.5 -67.5zM368 388q55 0 91 31q20 17 31.5 45.5
t11.5 61.5q0 30 -12 54t-32 41q-33 26 -94 26h-109v-259h113zM415 769h-125l-118 121h83l98 -61l98 61h83z" />
    <glyph glyph-name="Lcaron" unicode="&#x13d;" horiz-adv-x="645" 
d="M260 75h242l34 173h85v-248h-585v58l94 21v562l-94 21v58h328v-58l-104 -21v-566zM256 769h-125l-118 121h83l98 -61l98 61h83z" />
    <glyph glyph-name="Ccaron" unicode="&#x10c;" 
d="M377 661q-38 0 -72.5 -16t-55.5 -46q-27 -39 -45.5 -97t-18.5 -130t15 -133.5t42 -103.5q22 -35 59 -50.5t85 -15.5q168 0 197 169h85q-25 -126 -99.5 -187t-204.5 -61q-138 0 -220 80q-49 48 -75 120.5t-26 162.5q0 101 33 182.5t93 131.5q76 63 201 63q31 0 55.5 -3.5
t45.5 -12t39.5 -22.5t37.5 -35l20 63h85v-236h-91q-14 88 -62.5 132.5t-122.5 44.5zM449 769h-125l-118 121h83l98 -61l98 61h83z" />
    <glyph glyph-name="Zcaron" unicode="&#x17d;" horiz-adv-x="659" 
d="M534 238h87v-238h-593v61l415 584h-270l-32 -152h-82v227h539v-61l-415 -584h319zM397 769h-125l-118 121h83l98 -61l98 61h83z" />
    <glyph glyph-name="Uring" unicode="&#x16e;" horiz-adv-x="784" 
d="M584 641l-84 21v58h261v-58l-84 -21v-398q0 -125 -74 -189.5t-219 -64.5q-134 0 -205 66t-71 189v397l-84 21v58h298v-58l-84 -21v-365q0 -217 168 -217q94 0 136 50.5t42 164.5v367zM322 824q0 38 26.5 57t63.5 19q38 0 64.5 -19t26.5 -57q0 -37 -26.5 -55.5
t-64.5 -18.5q-37 0 -63.5 18.5t-26.5 55.5zM382 824q0 -30 30 -30q32 0 32 30q0 32 -32 32q-30 0 -30 -32z" />
    <glyph glyph-name="Ncaron" unicode="&#x147;" horiz-adv-x="817" 
d="M125 641l-84 21v58h231l334 -528v449l-84 21v58h263v-58l-84 -21v-641h-111l-370 574v-495l84 -21v-58h-263v58l84 21v562zM470 769h-125l-118 121h83l98 -61l98 61h83z" />
    <glyph glyph-name="Scaron" unicode="&#x160;" horiz-adv-x="613" 
d="M322 -11q-57 0 -96.5 16.5t-70.5 52.5l-11 -58h-86v242h91q3 -50 15.5 -85t33.5 -57t49.5 -31.5t64.5 -9.5q57 0 91 23.5t34 74.5q0 31 -13 53t-37 39.5t-57 32.5l-73 32q-47 19 -83.5 38.5t-61.5 44t-38 56t-13 75.5q0 97 59.5 150t159.5 53q99 0 161 -56l8 45h86v-242
h-87q0 94 -35 139t-108 45q-113 0 -113 -107q0 -26 7.5 -44t25 -32.5t46 -28.5l70.5 -33q63 -29 106.5 -54t70 -51t38.5 -55t12 -66q0 -50 -19 -88t-52.5 -63.5t-78.5 -38t-96 -12.5zM375 769h-125l-118 121h83l98 -61l98 61h83z" />
    <glyph glyph-name="Ccedilla" unicode="&#xc7;" 
d="M344 -210q-53 0 -91 28l31 42q29 -20 59 -20q42 0 42 26q0 13 -12.5 20.5t-32.5 7.5q-11 0 -24 -1.5t-22 -4.5l-17 29l57 74q-119 9 -190 79q-49 48 -75 120.5t-26 162.5q0 101 33 182.5t93 131.5q76 63 201 63q31 0 55.5 -3.5t45.5 -12t39.5 -22.5t37.5 -35l20 63h85
v-236h-91q-14 88 -62.5 132.5t-122.5 44.5q-38 0 -72.5 -16t-55.5 -46q-27 -39 -45.5 -97t-18.5 -130t15 -133.5t42 -103.5q22 -35 59 -50.5t85 -15.5q168 0 197 169h85q-23 -114 -85.5 -174t-169.5 -71l-27 -46l1 -3q56 0 78 -19t22 -51q0 -20 -11.5 -36t-31 -26.5
t-45.5 -16t-55 -5.5z" />
    <glyph glyph-name="uni015E" unicode="&#x15e;" horiz-adv-x="613" 
d="M290 -210q-53 0 -91 28l31 42q29 -20 59 -20q42 0 42 26q0 13 -12.5 20.5t-32.5 7.5q-11 0 -24 -1.5t-22 -4.5l-17 29l57 75q-40 5 -70 21t-55 45l-11 -58h-86v242h91q3 -50 15.5 -85t33.5 -57t49.5 -31.5t64.5 -9.5q57 0 91 23.5t34 74.5q0 31 -13 53t-37 39.5t-57 32.5
l-73 32q-47 19 -83.5 38.5t-61.5 44t-38 56t-13 75.5q0 97 59.5 150t159.5 53q99 0 161 -56l8 45h86v-242h-87q0 94 -35 139t-108 45q-113 0 -113 -107q0 -26 7.5 -44t25 -32.5t46 -28.5l70.5 -33q63 -29 106.5 -54t70 -51t38.5 -55t12 -66q0 -46 -16 -81.5t-44.5 -60.5
t-66.5 -39.5t-83 -18.5l-26 -44l1 -3q56 0 78 -19t22 -51q0 -20 -11.5 -36t-31 -26.5t-45.5 -16t-55 -5.5z" />
    <glyph glyph-name="uni0162" unicode="&#x162;" horiz-adv-x="674" 
d="M297 -210q-53 0 -91 28l31 42q29 -20 59 -20q42 0 42 26q0 13 -12.5 20.5t-32.5 7.5q-11 0 -24 -1.5t-22 -4.5l-17 29l64 83h-128v58l106 24v563h-153l-31 -150h-64v225h626v-225h-64l-32 150h-152v-563l106 -24v-58h-137l-32 -53l1 -3q56 0 78 -19t22 -51
q0 -20 -11.5 -36t-31 -26.5t-45.5 -16t-55 -5.5z" />
    <glyph glyph-name="Iogonek" unicode="&#x12e;" horiz-adv-x="390" 
d="M174 -210q-56 0 -83.5 23.5t-27.5 61.5q0 68 90 125h-117v58l94 21v562l-94 21v58h318v-58l-94 -21v-562l94 -21v-58h-126q-22 -18 -42.5 -45.5t-20.5 -52.5q0 -18 13.5 -28.5t36.5 -10.5q16 0 31.5 4t27.5 14l24 -35q-17 -26 -45 -41t-79 -15z" />
    <glyph glyph-name="Oogonek" unicode="&#x1ea;" horiz-adv-x="774" 
d="M363 -210q-56 0 -83.5 23.5t-27.5 61.5q0 62 79 118q-64 5 -111 25.5t-81 55.5q-44 45 -70 117.5t-26 160.5t26 164t74 127q42 45 100.5 66t143.5 21q81 0 141.5 -19.5t105.5 -64.5q52 -52 74.5 -125.5t22.5 -152.5q0 -84 -24 -160.5t-76 -130.5q-40 -42 -94.5 -63
t-129.5 -23q-20 -19 -36.5 -43t-16.5 -46q0 -18 13.5 -28.5t36.5 -10.5q16 0 31.5 4t27.5 14l24 -35q-17 -26 -45 -41t-79 -15zM188 371q0 -78 14.5 -138t39.5 -98q24 -37 59.5 -56t88.5 -19q94 0 142 66q26 35 40 91.5t14 136.5q0 79 -14.5 137t-40.5 96t-63.5 56t-84.5 18
q-48 0 -82 -17.5t-57 -48.5q-56 -74 -56 -224z" />
    <glyph glyph-name="Eogonek" unicode="&#x118;" 
d="M339 -210q-56 0 -83.5 23.5t-27.5 61.5q0 68 90 125h-282v58l94 21v562l-94 21v58h593v-212h-82l-29 139h-258v-240h137l17 95h81v-264h-81l-17 94h-137v-257h275l28 148h88v-223h-258q-22 -18 -42.5 -45.5t-20.5 -52.5q0 -18 13.5 -28.5t36.5 -10.5q16 0 31.5 4t27.5 14
l24 -35q-17 -26 -45 -41t-79 -15z" />
    <glyph glyph-name="Uogonek" unicode="&#x172;" horiz-adv-x="784" 
d="M390 -210q-56 0 -83.5 23.5t-27.5 61.5q0 62 75 115q-119 8 -182.5 73t-63.5 181v397l-84 21v58h298v-58l-84 -21v-365q0 -217 168 -217q94 0 136 50.5t42 164.5v367l-84 21v58h261v-58l-84 -21v-398q0 -114 -61.5 -177.5t-181.5 -74.5q-20 -18 -36.5 -42.5t-16.5 -46.5
q0 -18 13.5 -28.5t36.5 -10.5q16 0 31.5 4t27.5 14l24 -35q-17 -26 -45 -41t-79 -15z" />
    <glyph glyph-name="Aogonek" unicode="&#x104;" horiz-adv-x="728" 
d="M577 -210q-56 0 -83.5 23.5t-27.5 61.5q0 68 90 125h-123v58l82 21l-51 155h-244l-52 -155l83 -21v-58h-264v58l82 21l234 651h123l232 -651l80 -21v-58h-107q-22 -18 -42.5 -45.5t-20.5 -52.5q0 -18 13.5 -28.5t36.5 -10.5q16 0 31.5 4t27.5 14l24 -35q-17 -26 -45 -41
t-79 -15zM245 307h195l-93 291h-4z" />
    <glyph glyph-name="Aringacute" unicode="&#x1fa;" horiz-adv-x="728" 
d="M271 759q0 38 27 57t68 19q16 21 27.5 34t21.5 19.5t18.5 9t19.5 2.5q19 0 28 -11.5t9 -24.5q0 -14 -11.5 -24t-45.5 -32q19 -19 19 -49q0 -36 -26 -55l232 -625l80 -21v-58h-305v58l82 21l-51 155h-244l-52 -155l83 -21v-58h-264v58l82 21l232 622q-14 9 -22 23.5
t-8 34.5zM245 307h195l-93 266h-4zM331 759q0 -30 30 -30q32 0 32 30q0 32 -32 32q-30 0 -30 -32z" />
    <glyph glyph-name="AEacute" unicode="&#x1fc;" horiz-adv-x="1072" 
d="M788 238l-16 94h-138v-257h275l28 148h88v-223h-615v58l94 21v155h-227l-85 -155l71 -21v-58h-277v58l102 21l320 572l-75 11v58h670v-212h-82l-29 139h-258v-240h138l16 95h81v-264h-81zM497 642l-179 -335h186v334zM644 836q16 21 28.5 33.5t23 19t21.5 9t25 2.5
q24 0 35.5 -12t11.5 -27q0 -10 -3 -17.5t-11.5 -15t-23 -17l-37.5 -23.5l-47 -28h-83z" />
    <glyph glyph-name="Rcommaaccent" unicode="&#x156;" horiz-adv-x="717" 
d="M566 382q-18 -14 -40.5 -27t-57.5 -21q5 -5 15.5 -17.5t21.5 -29.5l124 -210l89 -19v-58h-236v58l-131 257h-96v-236l95 -21v-58h-309v58l84 21v562l-84 21v58h374q48 0 84 -9t65 -29q36 -26 57 -67t21 -83t-20.5 -82.5t-55.5 -67.5zM368 388q55 0 91 31q20 17 31.5 45.5
t11.5 61.5q0 30 -12 54t-32 41q-33 26 -94 26h-109v-259h113zM399 -44q33 0 52.5 -17.5t19.5 -47.5q0 -39 -23 -71t-77 -60l-30 32q49 39 52 67l-3 2q-2 -2 -7 -3.5t-10 -1.5q-19 0 -29 14t-10 31q0 26 16 40.5t49 14.5z" />
    <glyph glyph-name="Lcommaaccent" unicode="&#x13b;" horiz-adv-x="645" 
d="M260 75h242l34 173h85v-248h-585v58l94 21v562l-94 21v58h328v-58l-104 -21v-566zM352 -44q33 0 52.5 -17.5t19.5 -47.5q0 -39 -23 -71t-77 -60l-30 32q49 39 52 67l-3 2q-2 -2 -7 -3.5t-10 -1.5q-19 0 -29 14t-10 31q0 26 16 40.5t49 14.5z" />
    <glyph glyph-name="Gcommaaccent" unicode="&#x122;" horiz-adv-x="765" 
d="M378 70q85 0 121 42t36 126v40l-84 21v60h298v-60l-84 -21v-278h-82l-25 79q-44 -48 -90 -68.5t-109 -20.5q-137 0 -219 84q-47 48 -72 119t-25 159q0 89 26.5 165t74.5 127q41 43 96.5 64.5t132.5 21.5q30 0 54 -4t44.5 -12.5t39 -22t37.5 -33.5l20 62h85v-236h-91
q-14 81 -59 129t-126 48q-45 0 -75 -15t-52 -43q-28 -42 -47 -103.5t-19 -133.5q0 -71 17.5 -135.5t49.5 -108.5q20 -27 53.5 -39.5t73.5 -12.5zM388 -44q33 0 52.5 -17.5t19.5 -47.5q0 -39 -23 -71t-77 -60l-30 32q49 39 52 67l-3 2q-2 -2 -7 -3.5t-10 -1.5q-19 0 -29 14
t-10 31q0 26 16 40.5t49 14.5z" />
    <glyph glyph-name="Ncommaaccent" unicode="&#x145;" horiz-adv-x="817" 
d="M125 641l-84 21v58h231l334 -528v449l-84 21v58h263v-58l-84 -21v-641h-111l-370 574v-495l84 -21v-58h-263v58l84 21v562zM418 -44q33 0 52.5 -17.5t19.5 -47.5q0 -39 -23 -71t-77 -60l-30 32q49 39 52 67l-3 2q-2 -2 -7 -3.5t-10 -1.5q-19 0 -29 14t-10 31
q0 26 16 40.5t49 14.5z" />
    <glyph glyph-name="Kcommaaccent" unicode="&#x136;" horiz-adv-x="747" 
d="M260 397l235 244l-91 21v58h293v-58l-88 -21l-219 -217l287 -347l84 -19v-58h-309v58l66 20l-212 262l-46 -44v-217l84 -21v-58h-308v58l94 21v562l-94 21v58h308v-58l-84 -21v-244zM403 -44q33 0 52.5 -17.5t19.5 -47.5q0 -39 -23 -71t-77 -60l-30 32q49 39 52 67l-3 2
q-2 -2 -7 -3.5t-10 -1.5q-19 0 -29 14t-10 31q0 26 16 40.5t49 14.5z" />
    <glyph glyph-name="uni021A" unicode="&#x21a;" horiz-adv-x="674" 
d="M650 720v-225h-64l-32 150h-152v-563l106 -24v-58h-342v58l106 24v563h-153l-31 -150h-64v225h626zM345 -44q33 0 52.5 -17.5t19.5 -47.5q0 -39 -23 -71t-77 -60l-30 32q49 39 52 67l-3 2q-2 -2 -7 -3.5t-10 -1.5q-19 0 -29 14t-10 31q0 26 16 40.5t49 14.5z" />
    <glyph glyph-name="uni0218" unicode="&#x218;" horiz-adv-x="613" 
d="M322 -11q-57 0 -96.5 16.5t-70.5 52.5l-11 -58h-86v242h91q3 -50 15.5 -85t33.5 -57t49.5 -31.5t64.5 -9.5q57 0 91 23.5t34 74.5q0 31 -13 53t-37 39.5t-57 32.5l-73 32q-47 19 -83.5 38.5t-61.5 44t-38 56t-13 75.5q0 97 59.5 150t159.5 53q99 0 161 -56l8 45h86v-242
h-87q0 94 -35 139t-108 45q-113 0 -113 -107q0 -26 7.5 -44t25 -32.5t46 -28.5l70.5 -33q63 -29 106.5 -54t70 -51t38.5 -55t12 -66q0 -50 -19 -88t-52.5 -63.5t-78.5 -38t-96 -12.5zM338 -44q33 0 52.5 -17.5t19.5 -47.5q0 -39 -23 -71t-77 -60l-30 32q49 39 52 67l-3 2
q-2 -2 -7 -3.5t-10 -1.5q-19 0 -29 14t-10 31q0 26 16 40.5t49 14.5z" />
    <glyph glyph-name="Edotaccent" unicode="&#x116;" 
d="M414 238l-17 94h-137v-257h275l28 148h88v-223h-615v58l94 21v562l-94 21v58h593v-212h-82l-29 139h-258v-240h137l17 95h81v-264h-81zM279 817q0 36 21 57t56 21t56.5 -21.5t21.5 -56.5t-21 -56t-57 -21t-56.5 20.5t-20.5 56.5z" />
    <glyph glyph-name="Dcroat" unicode="&#x110;" horiz-adv-x="784" 
d="M61 404h69v237l-84 21v58h366q149 0 232 -84q47 -48 72 -118t25 -150q0 -85 -26 -158t-74 -123q-42 -45 -100 -66t-138 -21h-357v58l84 21v245h-69v80zM385 75q54 0 92 16.5t64 49.5q27 34 41 86.5t14 126.5q0 142 -55 217q-27 37 -67.5 55.5t-98.5 18.5h-115v-241h130
v-80h-130v-249h125z" />
    <glyph glyph-name="Eth" unicode="&#xd0;" horiz-adv-x="785" 
d="M47 404h84v237l-84 21v58h366q149 0 232 -84q47 -48 72 -118t25 -150q0 -85 -26 -158t-74 -123q-42 -45 -100 -66t-138 -21h-357v58l84 21v243h-84v82zM386 75q54 0 92 12.5t64 38.5q55 73 55 228q0 156 -55 232q-52 59 -166 59h-115v-241h127v-82h-127v-247h125z" />
    <glyph glyph-name="Idotbelow" unicode="&#x1eca;" horiz-adv-x="390" 
d="M260 79l94 -21v-58h-318v58l94 21v562l-94 21v58h318v-58l-94 -21v-562z" />
    <glyph glyph-name="Hdotbelow" unicode="&#x1e24;" horiz-adv-x="819" 
d="M694 79l84 -21v-58h-298v58l84 21v254h-309v-254l84 -21v-58h-298v58l84 21v562l-84 21v58h298v-58l-84 -21v-235h309v235l-84 21v58h298v-58l-84 -21v-562z" />
    <glyph glyph-name="Odotbelow" unicode="&#x1ecc;" horiz-adv-x="774" 
d="M731 368q0 -84 -24 -160.5t-76 -130.5q-43 -45 -102.5 -66t-144.5 -21t-144.5 21t-100.5 63q-44 45 -70 117.5t-26 160.5t26 164t74 127q42 45 100.5 66t143.5 21q81 0 141.5 -19.5t105.5 -64.5q52 -52 74.5 -125.5t22.5 -152.5zM188 371q0 -78 14.5 -138t39.5 -98
q24 -37 59.5 -56t88.5 -19q94 0 142 66q26 35 40 91.5t14 136.5q0 79 -14.5 137t-40.5 96t-63.5 56t-84.5 18q-48 0 -82 -17.5t-57 -48.5q-56 -74 -56 -224z" />
    <glyph glyph-name="Ddotbelow" unicode="&#x1e0c;" horiz-adv-x="779" 
d="M380 75q54 0 92 16.5t64 49.5q27 34 41 86.5t14 126.5q0 142 -55 217q-27 37 -67.5 55.5t-98.5 18.5h-115v-570h125zM407 720q149 0 232 -84q47 -48 72 -118t25 -150q0 -85 -26 -158t-74 -123q-42 -45 -100 -66t-138 -21h-357v58l84 21v562l-84 21v58h366z" />
    <glyph glyph-name="Edotbelow" unicode="&#x1eb8;" 
d="M414 238l-17 94h-137v-257h275l28 148h88v-223h-615v58l94 21v562l-94 21v58h593v-212h-82l-29 139h-258v-240h137l17 95h81v-264h-81z" />
    <glyph glyph-name="Tdotbelow" unicode="&#x1e6c;" horiz-adv-x="674" 
d="M650 720v-225h-64l-32 150h-152v-563l106 -24v-58h-342v58l106 24v563h-153l-31 -150h-64v225h626z" />
    <glyph glyph-name="Rdotbelow" unicode="&#x1e5a;" horiz-adv-x="717" 
d="M566 382q-18 -14 -40.5 -27t-57.5 -21q5 -5 15.5 -17.5t21.5 -29.5l124 -210l89 -19v-58h-236v58l-131 257h-96v-236l95 -21v-58h-309v58l84 21v562l-84 21v58h374q48 0 84 -9t65 -29q36 -26 57 -67t21 -83t-20.5 -82.5t-55.5 -67.5zM368 388q55 0 91 31q20 17 31.5 45.5
t11.5 61.5q0 30 -12 54t-32 41q-33 26 -94 26h-109v-259h113z" />
    <glyph glyph-name="Zdotbelow" unicode="&#x1e92;" horiz-adv-x="659" 
d="M534 238h87v-238h-593v61l415 584h-270l-32 -152h-82v227h539v-61l-415 -584h319z" />
    <glyph glyph-name="Udotbelow" unicode="&#x1ee4;" horiz-adv-x="784" 
d="M584 641l-84 21v58h261v-58l-84 -21v-398q0 -125 -74 -189.5t-219 -64.5q-134 0 -205 66t-71 189v397l-84 21v58h298v-58l-84 -21v-365q0 -217 168 -217q94 0 136 50.5t42 164.5v367z" />
    <glyph glyph-name="Sdotbelow" unicode="&#x1e62;" horiz-adv-x="613" 
d="M322 -11q-57 0 -96.5 16.5t-70.5 52.5l-11 -58h-86v242h91q3 -50 15.5 -85t33.5 -57t49.5 -31.5t64.5 -9.5q57 0 91 23.5t34 74.5q0 31 -13 53t-37 39.5t-57 32.5l-73 32q-47 19 -83.5 38.5t-61.5 44t-38 56t-13 75.5q0 97 59.5 150t159.5 53q99 0 161 -56l8 45h86v-242
h-87q0 94 -35 139t-108 45q-113 0 -113 -107q0 -26 7.5 -44t25 -32.5t46 -28.5l70.5 -33q63 -29 106.5 -54t70 -51t38.5 -55t12 -66q0 -50 -19 -88t-52.5 -63.5t-78.5 -38t-96 -12.5z" />
    <glyph glyph-name="Hbar" unicode="&#x126;" horiz-adv-x="829" 
d="M699 568h69v-80h-69v-409l84 -21v-58h-298v58l84 21v254h-309v-254l84 -21v-58h-298v58l84 21v409h-68v80h68v73l-84 21v58h298v-58l-84 -21v-73h309v73l-84 21v58h298v-58l-84 -21v-73zM569 406v82h-309v-82h309z" />
    <glyph glyph-name="Ldot" unicode="&#x13f;" horiz-adv-x="645" 
d="M260 75h242l34 173h85v-248h-585v58l94 21v562l-94 21v58h328v-58l-104 -21v-566zM324 360q0 37 21 58.5t57 21.5t57.5 -22t21.5 -58t-21.5 -57t-57.5 -21q-38 0 -58 20t-20 58z" />
    <glyph glyph-name="Oslash" unicode="&#xd8;" horiz-adv-x="771" 
d="M729 368q0 -84 -24 -160.5t-76 -130.5q-43 -45 -102.5 -66t-144.5 -21q-119 0 -191 41l-29 -41h-101l67 94q-40 46 -63.5 115t-23.5 153q0 88 26 164t74 127q42 45 100.5 66t143.5 21q106 0 177 -35l25 35h101l-58 -82q0 -2 2 -2q52 -52 74.5 -125.5t22.5 -152.5z
M584 354q0 58 -8 105t-22 82l-302 -424q23 -29 56 -43t80 -14q94 0 142 66q26 35 40 91.5t14 136.5zM186 371q0 -103 24 -172l295 416q-49 46 -124 46q-48 0 -82 -17.5t-57 -48.5q-56 -74 -56 -224z" />
    <glyph glyph-name="Oslashacute" unicode="&#x1fe;" horiz-adv-x="771" 
d="M729 368q0 -84 -24 -160.5t-76 -130.5q-43 -45 -102.5 -66t-144.5 -21q-119 0 -191 41l-29 -41h-101l67 94q-40 46 -63.5 115t-23.5 153q0 88 26 164t74 127q42 45 100.5 66t143.5 21q106 0 177 -35l25 35h101l-58 -82q0 -2 2 -2q52 -52 74.5 -125.5t22.5 -152.5z
M584 354q0 58 -8 105t-22 82l-302 -424q23 -29 56 -43t80 -14q94 0 142 66q26 35 40 91.5t14 136.5zM186 371q0 -103 24 -172l295 416q-49 46 -124 46q-48 0 -82 -17.5t-57 -48.5q-56 -74 -56 -224zM401 836q16 21 28.5 33.5t23 19t21.5 9t25 2.5q24 0 35.5 -12t11.5 -27
q0 -10 -3 -17.5t-11.5 -15t-23 -17l-37.5 -23.5l-47 -28h-83z" />
    <glyph glyph-name="Tcaron" unicode="&#x164;" horiz-adv-x="674" 
d="M650 720v-225h-64l-32 150h-152v-563l106 -24v-58h-342v58l106 24v563h-153l-31 -150h-64v225h626zM401 769h-125l-118 121h83l98 -61l98 61h83z" />
    <glyph glyph-name="Tbar" unicode="&#x166;" horiz-adv-x="678" 
d="M652 720v-225h-64l-32 150h-152v-224h163v-80h-163v-259l106 -24v-58h-342v58l106 24v259h-163v80h163v224h-153l-31 -150h-64v225h626z" />
    <glyph glyph-name="Lslash" unicode="&#x141;" horiz-adv-x="646" 
d="M261 449l93 55v-84l-93 -55v-290h242l34 173h85v-248h-585v58l94 21v210l-65 -38v83l65 38v269l-94 21v58h328v-58l-104 -21v-192z" />
    <glyph glyph-name="uni01C4" unicode="&#x1c4;" horiz-adv-x="1438" 
d="M380 75q54 0 92 16.5t64 49.5q27 34 41 86.5t14 126.5q0 142 -55 217q-27 37 -67.5 55.5t-98.5 18.5h-115v-570h125zM407 720q149 0 232 -84q47 -48 72 -118t25 -150q0 -85 -26 -158t-74 -123q-42 -45 -100 -66t-138 -21h-357v58l84 21v562l-84 21v58h366zM1313 238h87
v-238h-593v61l415 584h-270l-32 -152h-82v227h539v-61l-415 -584h319zM1176 769h-125l-118 121h83l98 -61l98 61h83z" />
    <glyph glyph-name="sterling" unicode="&#xa3;" horiz-adv-x="628" 
d="M72 389h124q-21 44 -30.5 77.5t-9.5 65.5q0 79 59 124t168 45q86 0 133 -37.5t47 -102.5q0 -32 -16.5 -51.5t-49.5 -19.5q-31 0 -51 14.5t-20 38.5q0 40 36 57q-11 20 -33.5 30t-50.5 10q-49 0 -77 -20t-28 -65q0 -32 10 -72t32 -94h173v-78h-152q5 -25 6 -39.5t1 -26.5
q0 -24 -4 -50.5t-15 -53.5q21 -14 37 -23.5t29 -15t23 -7.5t21 -2q35 0 53.5 14.5t26.5 52.5h75q-11 -91 -39.5 -130.5t-80.5 -39.5q-15 0 -30 3.5t-34.5 13t-46 26.5l-64.5 43q-31 -45 -63.5 -65.5t-70.5 -20.5q-58 0 -93 27t-35 78q0 23 9.5 40.5t25 29.5t35.5 18.5
t40 6.5q21 0 47 -4t48 -13q3 9 4.5 23t1.5 29q0 25 -3 44.5t-14 41.5h-154v78zM165 56q31 0 47 51q-10 8 -22.5 13t-21.5 5q-23 0 -35.5 -9t-12.5 -26q0 -34 45 -34z" />
    <glyph glyph-name="at" unicode="@" horiz-adv-x="817" 
d="M399 449q77 0 101 -55l32 37h70l-37 -246q-2 -12 -3 -22.5t-1 -19.5q0 -26 12 -39t27 -13q19 0 37.5 15t32.5 40.5t22.5 60t8.5 74.5q0 60 -20.5 108t-58 82.5t-90.5 53t-119 18.5q-65 0 -120.5 -26.5t-96.5 -72.5t-64.5 -109t-23.5 -136q0 -135 73 -209t206 -74
q139 0 246 69l19 -46q-55 -37 -123.5 -56t-143.5 -19q-81 0 -145.5 23t-110 66.5t-69.5 105t-24 139.5q0 84 29.5 156t80.5 125.5t120.5 84t149.5 30.5q81 0 147 -22.5t113 -63t73 -98t26 -126.5q0 -53 -14.5 -97.5t-41 -77.5t-62.5 -51.5t-79 -18.5q-48 0 -67 18t-27 50
q-23 -31 -61 -52t-82 -21q-81 0 -119 42t-38 120q0 54 16.5 100.5t45.5 80t68 53t85 19.5zM407 395q-24 0 -45 -15t-36.5 -42t-24.5 -65.5t-9 -86.5q0 -52 15.5 -75t45.5 -23q54 0 89 54.5t35 153.5q0 53 -17.5 76t-52.5 23z" />
    <glyph glyph-name="trademark" unicode="&#x2122;" horiz-adv-x="850" 
d="M348 730v-110h-39l-14 63h-54v-232l43 -11v-34h-156v34l44 11v232h-55l-14 -63h-39v110h284zM663 730h126v-34l-33 -10v-236l33 -10v-34h-131v34l32 10v231l-77 -275h-68l-74 275v-231l28 -10v-34h-115v34l38 10v236l-38 10v34h127l67 -263h4z" />
    <glyph glyph-name="ordfeminine" unicode="&#xaa;" horiz-adv-x="386" 
d="M46 493q0 44 38.5 71t130.5 42q-3 27 -6.5 43t-9.5 24t-14.5 10.5t-16.5 2.5q-14 0 -21 -6.5t-9 -14.5q8 -5 10 -11.5t2 -11.5q0 -17 -14.5 -24.5t-30.5 -7.5q-22 0 -35.5 12.5t-13.5 34.5q0 18 9.5 31.5t25.5 22.5t38 14t46 5q22 0 48.5 -5t46.5 -22q21 -17 28 -48
t7 -73v-65q0 -27 3.5 -37.5t15.5 -10.5h25v-31q-29 -8 -52.5 -12t-37.5 -4q-22 0 -28 12t-6 48h-4q-15 -26 -41 -43t-60 -17q-35 0 -54.5 18.5t-19.5 52.5zM161 476q4 0 15 2.5t23 16.5q8 8 12.5 19t4.5 28q0 6 -0.5 13t-1.5 14q-42 -11 -59 -26.5t-17 -38.5q0 -28 23 -28z
" />
    <glyph glyph-name="ordmasculine" unicode="&#xba;" horiz-adv-x="381" 
d="M341 579q0 -35 -10.5 -68t-30.5 -53q-35 -36 -111 -36q-36 0 -64 8.5t-45 26.5q-20 20 -29.5 50t-9.5 65q0 36 10.5 69t30.5 53q35 36 110 36q35 0 63.5 -8.5t46.5 -26.5q20 -20 29.5 -50.5t9.5 -65.5zM135 578q0 -29 4 -49t15 -37q5 -8 15 -14.5t24 -6.5q22 0 35 15
q11 13 15 34t4 54q0 29 -4 50.5t-15 37.5q-6 8 -15.5 13.5t-22.5 5.5q-12 0 -21 -5.5t-14 -11.5q-11 -14 -15.5 -35t-4.5 -51z" />
    <glyph glyph-name="degree" unicode="&#xb0;" horiz-adv-x="371" 
d="M186 458q-67 0 -108 37.5t-41 97.5q0 29 11 54t31 43.5t47.5 29t59.5 10.5q33 0 60.5 -10t47 -27.5t30.5 -42.5t11 -55q0 -29 -11.5 -54t-31.5 -43.5t-47 -29t-59 -10.5zM188 509q30 0 48.5 23t18.5 61t-19.5 61.5t-51.5 23.5q-29 0 -48 -23.5t-19 -60.5t20 -61t51 -24z
" />
    <glyph glyph-name="servicemark" unicode="&#x2120;" horiz-adv-x="785" 
d="M178 406q-45 0 -70 31l-5 -26h-40v117h42q2 -42 21.5 -59.5t48.5 -17.5q20 0 36.5 7.5t16.5 30.5q0 16 -16.5 33t-59.5 34q-26 10 -42.5 19.5t-27 20t-14.5 23.5t-4 30q0 42 26.5 66.5t72.5 24.5q44 0 72 -25l4 20h40v-117h-41q0 42 -14 60t-50 18q-19 0 -31.5 -8.5
t-12.5 -28.5q0 -11 2.5 -18t9.5 -13t20 -11.5l33 -14.5q57 -24 78 -48.5t21 -59.5q0 -41 -31 -64.5t-85 -23.5zM601 735h126v-34l-33 -10v-236l33 -10v-34h-131v34l32 10v231l-77 -275h-68l-74 275v-231l28 -10v-34h-115v34l38 10v236l-38 10v34h127l67 -263h4z" />
    <glyph glyph-name="copyright" unicode="&#xa9;" horiz-adv-x="852" 
d="M418 -10q-81 0 -149.5 28.5t-119 78.5t-79 118t-28.5 146t28.5 145.5t79 117t119.5 78t150 28.5q89 0 161.5 -28.5t123.5 -78t78.5 -117t27.5 -145.5t-29 -146t-80.5 -118t-123.5 -78.5t-159 -28.5zM418 45q70 0 128 24t100 66.5t65.5 100.5t23.5 125t-22.5 124.5
t-64 99.5t-100 66t-129.5 24q-63 0 -117.5 -24t-95 -66t-64 -99.5t-23.5 -124.5q0 -68 23 -125.5t63.5 -100t95 -66.5t117.5 -24zM425 510q-43 0 -65 -32q-30 -44 -30 -109q0 -31 6.5 -57.5t17.5 -46.5q12 -22 34 -32.5t44 -10.5q34 0 59 23.5t35 66.5h59q-14 -73 -56 -108
t-108 -35q-83 0 -126 42q-29 27 -44 65.5t-15 83.5q0 50 19.5 94.5t52.5 71.5q23 19 52.5 26t57.5 7q26 0 47.5 -8.5t42.5 -30.5l10 33h59v-136h-62q-8 47 -32 70t-58 23z" />
    <glyph glyph-name="registered" unicode="&#xae;" horiz-adv-x="638" 
d="M314 230q-57 0 -104.5 19t-82 53t-54 79.5t-19.5 99.5t19.5 99.5t54 79t82 52t104.5 18.5q60 0 109.5 -18.5t85 -52t55.5 -79t20 -99.5t-20 -99.5t-55.5 -79.5t-85 -53t-109.5 -19zM314 282q98 0 148 54t50 145t-50 144t-148 53q-87 0 -137.5 -53t-50.5 -144t49.5 -145
t138.5 -54zM407 489l-14 -9t-20 -9l5.5 -5.5t5.5 -7.5l39 -65l32 -7v-30h-109v30l-39 77h-12v-69l28 -8v-30h-129v30l30 8v181l-30 8v30h158q33 0 53 -14q13 -9 20.5 -22t7.5 -35q0 -15 -6 -29t-20 -24zM311 504q9 0 19 3t16 8q8 6 10 12t2 17q0 9 -4.5 15.5t-9.5 8.5
q-3 2 -10.5 3t-24.5 1h-14v-68h16z" />
    <glyph glyph-name="zerosuperior" unicode="&#x2070;" horiz-adv-x="390" 
d="M54 560q0 90 36 131q34 38 106 38q69 0 104 -38q36 -39 36 -128q0 -42 -7.5 -75t-27.5 -54q-35 -38 -109 -38q-27 0 -55 7.5t-48 30.5q-35 40 -35 126zM248 562q0 29 -3.5 53.5t-9.5 38.5q-5 11 -14.5 19.5t-24.5 8.5q-11 0 -21.5 -6t-18.5 -21q-9 -19 -11.5 -45.5
t-2.5 -46.5q0 -26 3 -50t11 -42q6 -13 15 -20t24 -7q13 0 22.5 6t16.5 21q6 14 10 37t4 54z" />
    <glyph glyph-name="onesuperior" unicode="&#xb9;" horiz-adv-x="332" 
d="M131 654h-60v46q8 0 19 1.5t21.5 4t19.5 6t13 8.5h69v-278l48 -9v-41h-190v41l60 9v212z" />
    <glyph glyph-name="twosuperior" unicode="&#xb2;" horiz-adv-x="350" 
d="M229 464l10 47h56v-110h-247v30q0 23 12 42.5t29.5 37t38.5 33.5t38.5 33t29.5 35.5t12 41.5q0 10 -5 17t-12.5 10.5t-15.5 5t-14 1.5q-4 0 -11.5 -0.5t-15 -3.5t-14 -8t-7.5 -14q14 0 21 -9t7 -23t-9.5 -23.5t-31.5 -9.5q-26 0 -36.5 14t-10.5 33q0 39 29.5 62.5
t86.5 23.5q61 0 91.5 -23.5t30.5 -63.5q0 -25 -12 -45t-30 -36t-38.5 -29.5l-38.5 -25t-30 -22t-12 -21.5h99z" />
    <glyph glyph-name="threesuperior" unicode="&#xb3;" horiz-adv-x="344" 
d="M288 646q0 -30 -18.5 -49.5t-49.5 -24.5v-4q73 -14 73 -77q0 -42 -39 -68t-103 -26q-47 0 -75 23t-28 61q0 21 11 33.5t30 12.5q26 0 35.5 -10.5t9.5 -24.5q0 -11 -5.5 -19t-16.5 -8q2 -17 14.5 -21t26.5 -4q22 0 37.5 11.5t15.5 35.5q0 29 -20.5 45t-56.5 16v40
q34 0 55 15.5t21 45.5q0 20 -14 30.5t-37 10.5q-14 0 -26 -5t-14 -18q10 0 19 -7t9 -20t-10.5 -25.5t-36.5 -12.5q-21 0 -32 15.5t-11 34.5q0 35 29 56.5t83 21.5q59 0 91.5 -23t32.5 -61z" />
    <glyph glyph-name="foursuperior" unicode="&#x2074;" horiz-adv-x="341" 
d="M169 469h-129l-7 46l136 205h82v-203h49l-8 -48h-41v-28l35 -9v-40h-160v40l43 9v28zM101 517h68v112z" />
    <glyph glyph-name="fivesuperior" unicode="&#x2075;" horiz-adv-x="341" 
d="M254 656h-116l-11 -77q26 22 63 22q47 0 75 -27.5t28 -74.5q0 -48 -31 -77.5t-94 -29.5q-22 0 -42.5 4t-36.5 13t-25.5 23t-9.5 34q0 18 11.5 33t39.5 15q20 0 29 -11t9 -22q0 -12 -7.5 -20t-18.5 -8q3 -8 13.5 -15t27.5 -7q9 0 17.5 2.5t15.5 9.5t11.5 20t4.5 33
q0 23 -10 44t-36 21q-8 0 -23 -3t-23 -14l-50 18l24 158h130l8 14h52z" />
    <glyph glyph-name="sixsuperior" unicode="&#x2076;" horiz-adv-x="365" 
d="M137 559q25 36 75 36q44 0 71.5 -27.5t27.5 -71.5q0 -46 -30 -72.5t-86 -26.5q-72 0 -107.5 38t-35.5 119q0 87 35 131.5t109 44.5q50 0 74 -22t24 -49q0 -23 -10 -35t-36 -12q-16 0 -27.5 9t-11.5 22q0 11 5.5 19.5t16.5 9.5q-2 9 -12.5 13t-20.5 4q-30 0 -48 -23
t-18 -86v-12t1 -9h4zM224 496q0 34 -11.5 46.5t-28.5 12.5q-18 0 -29.5 -12.5t-11.5 -46.5q0 -35 12.5 -47t26.5 -12q17 0 29.5 12t12.5 47z" />
    <glyph glyph-name="sevensuperior" unicode="&#x2077;" horiz-adv-x="315" 
d="M178 438q0 -15 -10 -30.5t-36 -15.5q-14 0 -26 8.5t-12 35.5q0 16 7.5 43t20.5 58t30.5 62t38.5 55h-92l-8 -44h-47v110h236v-42q-19 -17 -37.5 -45t-32.5 -61t-23 -68t-9 -66z" />
    <glyph glyph-name="eightsuperior" unicode="&#x2078;" horiz-adv-x="348" 
d="M284 658q0 -53 -53 -82q36 -19 52 -39.5t16 -47.5q0 -42 -33 -67t-99 -25q-54 0 -85 22t-31 62q0 29 15.5 50.5t49.5 39.5q-27 18 -38.5 35.5t-11.5 41.5q0 38 27.5 60t84.5 22t81.5 -20t24.5 -52zM152 549q-15 -11 -23 -26t-8 -37q0 -17 9.5 -32t35.5 -15q7 0 16 1.5
t16.5 5.5t13 11.5t5.5 18.5q0 22 -17.5 38.5t-47.5 34.5zM193 598q10 9 18 21.5t8 33.5q0 23 -11.5 32.5t-27.5 9.5q-18 0 -28 -10.5t-10 -26.5q0 -5 1 -12t5.5 -15t15 -16.5t29.5 -16.5z" />
    <glyph glyph-name="ninesuperior" unicode="&#x2079;" horiz-adv-x="364" 
d="M226 568q-25 -36 -75 -36q-44 0 -71.5 27.5t-27.5 71.5q0 46 34.5 72.5t90.5 26.5q72 0 103 -38t31 -119q0 -87 -35 -131.5t-109 -44.5q-50 0 -74 22t-24 49q0 23 10 35t36 12q16 0 27.5 -9t11.5 -22q0 -11 -5.5 -19.5t-16.5 -9.5q2 -9 12.5 -13t20.5 -4q30 0 48 23
t18 86v12t-1 9h-4zM139 631q0 -34 11.5 -46.5t28.5 -12.5q18 0 29.5 12.5t11.5 46.5q0 35 -12.5 47t-26.5 12q-17 0 -29.5 -12t-12.5 -47z" />
    <glyph glyph-name="zeroinferior" unicode="&#x2080;" horiz-adv-x="391" 
d="M54 154q0 90 36 131q34 38 106 38q69 0 104 -38q36 -39 36 -128q0 -42 -7.5 -75t-27.5 -54q-35 -38 -109 -38q-27 0 -55 7.5t-48 30.5q-35 40 -35 126zM248 156q0 29 -3.5 53.5t-9.5 38.5q-5 11 -14.5 19.5t-24.5 8.5q-11 0 -21.5 -6t-18.5 -21q-9 -19 -11.5 -45.5
t-2.5 -46.5q0 -26 3 -50t11 -42q6 -13 15 -20t24 -7q13 0 22.5 6t16.5 21q6 14 10 37t4 54z" />
    <glyph glyph-name="oneinferior" unicode="&#x2081;" horiz-adv-x="332" 
d="M131 262h-60v46q8 0 19 1.5t21.5 4t19.5 6t13 8.5h69v-278l48 -9v-41h-190v41l60 9v212z" />
    <glyph glyph-name="twoinferior" unicode="&#x2082;" horiz-adv-x="348" 
d="M229 63l10 47h56v-110h-247v30q0 23 12 42.5t29.5 37t38.5 33.5t38.5 33t29.5 35.5t12 41.5q0 10 -5 17t-12.5 10.5t-15.5 5t-14 1.5q-4 0 -11.5 -0.5t-15 -3.5t-14 -8t-7.5 -14q14 0 21 -9t7 -23t-9.5 -23.5t-31.5 -9.5q-26 0 -36.5 14t-10.5 33q0 39 29.5 62.5
t86.5 23.5q61 0 91.5 -23.5t30.5 -63.5q0 -25 -12 -45t-30 -36t-38.5 -29.5l-38.5 -25t-30 -22t-12 -21.5h99z" />
    <glyph glyph-name="threeinferior" unicode="&#x2083;" horiz-adv-x="344" 
d="M288 239q0 -30 -18.5 -49.5t-49.5 -24.5v-4q73 -14 73 -77q0 -42 -39 -68t-103 -26q-47 0 -75 23t-28 61q0 21 11 33.5t30 12.5q26 0 35.5 -10.5t9.5 -24.5q0 -11 -5.5 -19t-16.5 -8q2 -17 14.5 -21t26.5 -4q22 0 37.5 11.5t15.5 35.5q0 29 -20.5 45t-56.5 16v40
q34 0 55 15.5t21 45.5q0 20 -14 30.5t-37 10.5q-14 0 -26 -5t-14 -18q10 0 19 -7t9 -20t-10.5 -25.5t-36.5 -12.5q-21 0 -32 15.5t-11 34.5q0 35 29 56.5t83 21.5q59 0 91.5 -23t32.5 -61z" />
    <glyph glyph-name="fourinferior" unicode="&#x2084;" horiz-adv-x="341" 
d="M169 77h-129l-7 46l136 205h82v-203h49l-8 -48h-41v-28l35 -9v-40h-160v40l43 9v28zM101 125h68v112z" />
    <glyph glyph-name="fiveinferior" unicode="&#x2085;" horiz-adv-x="341" 
d="M254 254h-116l-11 -77q26 22 63 22q47 0 75 -27.5t28 -74.5q0 -48 -31 -77.5t-94 -29.5q-22 0 -42.5 4t-36.5 13t-25.5 23t-9.5 34q0 18 11.5 33t39.5 15q20 0 29 -11t9 -22q0 -12 -7.5 -20t-18.5 -8q3 -8 13.5 -15t27.5 -7q9 0 17.5 2.5t15.5 9.5t11.5 20t4.5 33
q0 23 -10 44t-36 21q-8 0 -23 -3t-23 -14l-50 18l24 158h130l8 14h52z" />
    <glyph glyph-name="sixinferior" unicode="&#x2086;" horiz-adv-x="365" 
d="M137 152q25 36 75 36q44 0 71.5 -27.5t27.5 -71.5q0 -46 -30 -72.5t-86 -26.5q-72 0 -107.5 38t-35.5 119q0 87 35 131.5t109 44.5q50 0 74 -22t24 -49q0 -23 -10 -35t-36 -12q-16 0 -27.5 9t-11.5 22q0 11 5.5 19.5t16.5 9.5q-2 9 -12.5 13t-20.5 4q-30 0 -48 -23
t-18 -86v-12t1 -9h4zM224 89q0 34 -11.5 46.5t-28.5 12.5q-18 0 -29.5 -12.5t-11.5 -46.5q0 -35 12.5 -47t26.5 -12q17 0 29.5 12t12.5 47z" />
    <glyph glyph-name="seveninferior" unicode="&#x2087;" horiz-adv-x="316" 
d="M179 36q0 -15 -10 -30.5t-36 -15.5q-14 0 -26 8.5t-12 35.5q0 16 7.5 43t20.5 58t30.5 62t38.5 55h-92l-8 -44h-47v110h236v-42q-19 -17 -37.5 -45t-32.5 -61t-23 -68t-9 -66z" />
    <glyph glyph-name="eightinferior" unicode="&#x2088;" horiz-adv-x="346" 
d="M283 251q0 -53 -53 -82q36 -19 52 -39.5t16 -47.5q0 -42 -33 -67t-99 -25q-54 0 -85 22t-31 62q0 29 15.5 50.5t49.5 39.5q-27 18 -38.5 35.5t-11.5 41.5q0 38 27.5 60t84.5 22t81.5 -20t24.5 -52zM151 142q-15 -11 -23 -26t-8 -37q0 -17 9.5 -32t35.5 -15q7 0 16 1.5
t16.5 5.5t13 11.5t5.5 18.5q0 22 -17.5 38.5t-47.5 34.5zM192 191q10 9 18 21.5t8 33.5q0 23 -11.5 32.5t-27.5 9.5q-18 0 -28 -10.5t-10 -26.5q0 -5 1 -12t5.5 -15t15 -16.5t29.5 -16.5z" />
    <glyph glyph-name="nineinferior" unicode="&#x2089;" horiz-adv-x="364" 
d="M226 161q-25 -36 -75 -36q-44 0 -71.5 27.5t-27.5 71.5q0 46 34.5 72.5t90.5 26.5q72 0 103 -38t31 -119q0 -87 -35 -131.5t-109 -44.5q-50 0 -74 22t-24 49q0 23 10 35t36 12q16 0 27.5 -9t11.5 -22q0 -11 -5.5 -19.5t-16.5 -9.5q2 -9 12.5 -13t20.5 -4q30 0 48 23
t18 86v12t-1 9h-4zM139 224q0 -34 11.5 -46.5t28.5 -12.5q18 0 29.5 12.5t11.5 46.5q0 35 -12.5 47t-26.5 12q-17 0 -29.5 -12t-12.5 -47z" />
    <glyph glyph-name="percent" unicode="%" horiz-adv-x="701" 
d="M502 730h84l-386 -740h-84zM32 560q0 90 36 131q34 38 106 38q69 0 104 -38q36 -39 36 -128q0 -42 -7.5 -75t-27.5 -54q-35 -38 -109 -38q-27 0 -55 7.5t-48 30.5q-35 40 -35 126zM226 562q0 29 -3.5 53.5t-9.5 38.5q-5 11 -14.5 19.5t-24.5 8.5q-11 0 -21.5 -6
t-18.5 -21q-9 -19 -11.5 -45.5t-2.5 -46.5q0 -26 3 -50t11 -42q6 -13 15 -20t24 -7q13 0 22.5 6t16.5 21q6 14 10 37t4 54zM386 154q0 90 36 131q34 38 106 38q69 0 104 -38q36 -39 36 -128q0 -42 -7.5 -75t-27.5 -54q-35 -38 -109 -38q-27 0 -55 7.5t-48 30.5
q-35 40 -35 126zM580 156q0 29 -3.5 53.5t-9.5 38.5q-5 11 -14.5 19.5t-24.5 8.5q-11 0 -21.5 -6t-18.5 -21q-9 -19 -11.5 -45.5t-2.5 -46.5q0 -26 3 -50t11 -42q6 -13 15 -20t24 -7q13 0 22.5 6t16.5 21q6 14 10 37t4 54z" />
    <glyph glyph-name="perthousand" unicode="&#x2030;" horiz-adv-x="1012" 
d="M502 730h84l-386 -740h-84zM32 560q0 90 36 131q34 38 106 38q69 0 104 -38q36 -39 36 -128q0 -42 -7.5 -75t-27.5 -54q-35 -38 -109 -38q-27 0 -55 7.5t-48 30.5q-35 40 -35 126zM226 562q0 29 -3.5 53.5t-9.5 38.5q-5 11 -14.5 19.5t-24.5 8.5q-11 0 -21.5 -6
t-18.5 -21q-9 -19 -11.5 -45.5t-2.5 -46.5q0 -26 3 -50t11 -42q6 -13 15 -20t24 -7q13 0 22.5 6t16.5 21q6 14 10 37t4 54zM386 154q0 90 36 131q34 38 106 38q69 0 104 -38q36 -39 36 -128q0 -42 -7.5 -75t-27.5 -54q-35 -38 -109 -38q-27 0 -55 7.5t-48 30.5
q-35 40 -35 126zM580 156q0 29 -3.5 53.5t-9.5 38.5q-5 11 -14.5 19.5t-24.5 8.5q-11 0 -21.5 -6t-18.5 -21q-9 -19 -11.5 -45.5t-2.5 -46.5q0 -26 3 -50t11 -42q6 -13 15 -20t24 -7q13 0 22.5 6t16.5 21q6 14 10 37t4 54zM699 154q0 90 36 131q34 38 106 38q69 0 104 -38
q36 -39 36 -128q0 -42 -7.5 -75t-27.5 -54q-35 -38 -109 -38q-27 0 -55 7.5t-48 30.5q-35 40 -35 126zM893 156q0 29 -3.5 53.5t-9.5 38.5q-5 11 -14.5 19.5t-24.5 8.5q-11 0 -21.5 -6t-18.5 -21q-9 -19 -11.5 -45.5t-2.5 -46.5q0 -26 3 -50t11 -42q6 -13 15 -20t24 -7
q13 0 22.5 6t16.5 21q6 14 10 37t4 54z" />
    <glyph glyph-name="onehalf" unicode="&#xbd;" horiz-adv-x="653" 
d="M470 730h84l-386 -740h-84zM100 654h-60v46q8 0 19 1.5t21.5 4t19.5 6t13 8.5h69v-278l48 -9v-41h-190v41l60 9v212zM552 63l10 47h56v-110h-247v30q0 23 12 42.5t29.5 37t38.5 33.5t38.5 33t29.5 35.5t12 41.5q0 10 -5 17t-12.5 10.5t-15.5 5t-14 1.5q-4 0 -11.5 -0.5
t-15 -3.5t-14 -8t-7.5 -14q14 0 21 -9t7 -23t-9.5 -23.5t-31.5 -9.5q-26 0 -36.5 14t-10.5 33q0 39 29.5 62.5t86.5 23.5q61 0 91.5 -23.5t30.5 -63.5q0 -25 -12 -45t-30 -36t-38.5 -29.5l-38.5 -25t-30 -22t-12 -21.5h99z" />
    <glyph glyph-name="onethird" unicode="&#x2153;" horiz-adv-x="654" 
d="M471 730h84l-386 -740h-84zM101 654h-60v46q8 0 19 1.5t21.5 4t19.5 6t13 8.5h69v-278l48 -9v-41h-190v41l60 9v212zM615 239q0 -30 -18.5 -49.5t-49.5 -24.5v-4q73 -14 73 -77q0 -42 -39 -68t-103 -26q-47 0 -75 23t-28 61q0 21 11 33.5t30 12.5q26 0 35.5 -10.5
t9.5 -24.5q0 -11 -5.5 -19t-16.5 -8q2 -17 14.5 -21t26.5 -4q22 0 37.5 11.5t15.5 35.5q0 29 -20.5 45t-56.5 16v40q34 0 55 15.5t21 45.5q0 20 -14 30.5t-37 10.5q-14 0 -26 -5t-14 -18q10 0 19 -7t9 -20t-10.5 -25.5t-36.5 -12.5q-21 0 -32 15.5t-11 34.5q0 35 29 56.5
t83 21.5q59 0 91.5 -23t32.5 -61z" />
    <glyph glyph-name="onequarter" unicode="&#xbc;" horiz-adv-x="634" 
d="M474 730h84l-386 -740h-84zM104 654h-60v46q8 0 19 1.5t21.5 4t19.5 6t13 8.5h69v-278l48 -9v-41h-190v41l60 9v212zM471 77h-129l-7 46l136 205h82v-203h49l-8 -48h-41v-28l35 -9v-40h-160v40l43 9v28zM403 125h68v112z" />
    <glyph glyph-name="oneeighth" unicode="&#x215b;" horiz-adv-x="656" 
d="M473 730h84l-386 -740h-84zM103 654h-60v46q8 0 19 1.5t21.5 4t19.5 6t13 8.5h69v-278l48 -9v-41h-190v41l60 9v212zM608 251q0 -53 -53 -82q36 -19 52 -39.5t16 -47.5q0 -42 -33 -67t-99 -25q-54 0 -85 22t-31 62q0 29 15.5 50.5t49.5 39.5q-27 18 -38.5 35.5
t-11.5 41.5q0 38 27.5 60t84.5 22t81.5 -20t24.5 -52zM476 142q-15 -11 -23 -26t-8 -37q0 -17 9.5 -32t35.5 -15q7 0 16 1.5t16.5 5.5t13 11.5t5.5 18.5q0 22 -17.5 38.5t-47.5 34.5zM517 191q10 9 18 21.5t8 33.5q0 23 -11.5 32.5t-27.5 9.5q-18 0 -28 -10.5t-10 -26.5
q0 -5 1 -12t5.5 -15t15 -16.5t29.5 -16.5z" />
    <glyph glyph-name="twothirds" unicode="&#x2154;" horiz-adv-x="671" 
d="M488 730h84l-386 -740h-84zM632 239q0 -30 -18.5 -49.5t-49.5 -24.5v-4q73 -14 73 -77q0 -42 -39 -68t-103 -26q-47 0 -75 23t-28 61q0 21 11 33.5t30 12.5q26 0 35.5 -10.5t9.5 -24.5q0 -11 -5.5 -19t-16.5 -8q2 -17 14.5 -21t26.5 -4q22 0 37.5 11.5t15.5 35.5
q0 29 -20.5 45t-56.5 16v40q34 0 55 15.5t21 45.5q0 20 -14 30.5t-37 10.5q-14 0 -26 -5t-14 -18q10 0 19 -7t9 -20t-10.5 -25.5t-36.5 -12.5q-21 0 -32 15.5t-11 34.5q0 35 29 56.5t83 21.5q59 0 91.5 -23t32.5 -61zM217 464l10 47h56v-110h-247v30q0 23 12 42.5t29.5 37
t38.5 33.5t38.5 33t29.5 35.5t12 41.5q0 10 -5 17t-12.5 10.5t-15.5 5t-14 1.5q-4 0 -11.5 -0.5t-15 -3.5t-14 -8t-7.5 -14q14 0 21 -9t7 -23t-9.5 -23.5t-31.5 -9.5q-26 0 -36.5 14t-10.5 33q0 39 29.5 62.5t86.5 23.5q61 0 91.5 -23.5t30.5 -63.5q0 -25 -12 -45t-30 -36
t-38.5 -29.5l-38.5 -25t-30 -22t-12 -21.5h99z" />
    <glyph glyph-name="threequarters" unicode="&#xbe;" horiz-adv-x="644" 
d="M484 730h84l-386 -740h-84zM481 77h-129l-7 46l136 205h82v-203h49l-8 -48h-41v-28l35 -9v-40h-160v40l43 9v28zM413 125h68v112zM276 646q0 -30 -18.5 -49.5t-49.5 -24.5v-4q73 -14 73 -77q0 -42 -39 -68t-103 -26q-47 0 -75 23t-28 61q0 21 11 33.5t30 12.5
q26 0 35.5 -10.5t9.5 -24.5q0 -11 -5.5 -19t-16.5 -8q2 -17 14.5 -21t26.5 -4q22 0 37.5 11.5t15.5 35.5q0 29 -20.5 45t-56.5 16v40q34 0 55 15.5t21 45.5q0 20 -14 30.5t-37 10.5q-14 0 -26 -5t-14 -18q10 0 19 -7t9 -20t-10.5 -25.5t-36.5 -12.5q-21 0 -32 15.5t-11 34.5
q0 35 29 56.5t83 21.5q59 0 91.5 -23t32.5 -61z" />
    <glyph glyph-name="threeeighths" unicode="&#x215c;" horiz-adv-x="666" 
d="M483 730h84l-386 -740h-84zM275 646q0 -30 -18.5 -49.5t-49.5 -24.5v-4q73 -14 73 -77q0 -42 -39 -68t-103 -26q-47 0 -75 23t-28 61q0 21 11 33.5t30 12.5q26 0 35.5 -10.5t9.5 -24.5q0 -11 -5.5 -19t-16.5 -8q2 -17 14.5 -21t26.5 -4q22 0 37.5 11.5t15.5 35.5
q0 29 -20.5 45t-56.5 16v40q34 0 55 15.5t21 45.5q0 20 -14 30.5t-37 10.5q-14 0 -26 -5t-14 -18q10 0 19 -7t9 -20t-10.5 -25.5t-36.5 -12.5q-21 0 -32 15.5t-11 34.5q0 35 29 56.5t83 21.5q59 0 91.5 -23t32.5 -61zM618 251q0 -53 -53 -82q36 -19 52 -39.5t16 -47.5
q0 -42 -33 -67t-99 -25q-54 0 -85 22t-31 62q0 29 15.5 50.5t49.5 39.5q-27 18 -38.5 35.5t-11.5 41.5q0 38 27.5 60t84.5 22t81.5 -20t24.5 -52zM486 142q-15 -11 -23 -26t-8 -37q0 -17 9.5 -32t35.5 -15q7 0 16 1.5t16.5 5.5t13 11.5t5.5 18.5q0 22 -17.5 38.5t-47.5 34.5
zM527 191q10 9 18 21.5t8 33.5q0 23 -11.5 32.5t-27.5 9.5q-18 0 -28 -10.5t-10 -26.5q0 -5 1 -12t5.5 -15t15 -16.5t29.5 -16.5z" />
    <glyph glyph-name="fiveeighths" unicode="&#x215d;" horiz-adv-x="650" 
d="M477 730h84l-386 -740h-84zM602 251q0 -53 -53 -82q36 -19 52 -39.5t16 -47.5q0 -42 -33 -67t-99 -25q-54 0 -85 22t-31 62q0 29 15.5 50.5t49.5 39.5q-27 18 -38.5 35.5t-11.5 41.5q0 38 27.5 60t84.5 22t81.5 -20t24.5 -52zM470 142q-15 -11 -23 -26t-8 -37
q0 -17 9.5 -32t35.5 -15q7 0 16 1.5t16.5 5.5t13 11.5t5.5 18.5q0 22 -17.5 38.5t-47.5 34.5zM511 191q10 9 18 21.5t8 33.5q0 23 -11.5 32.5t-27.5 9.5q-18 0 -28 -10.5t-10 -26.5q0 -5 1 -12t5.5 -15t15 -16.5t29.5 -16.5zM233 656h-116l-11 -77q26 22 63 22
q47 0 75 -27.5t28 -74.5q0 -48 -31 -77.5t-94 -29.5q-22 0 -42.5 4t-36.5 13t-25.5 23t-9.5 34q0 18 11.5 33t39.5 15q20 0 29 -11t9 -22q0 -12 -7.5 -20t-18.5 -8q3 -8 13.5 -15t27.5 -7q9 0 17.5 2.5t15.5 9.5t11.5 20t4.5 33q0 23 -10 44t-36 21q-8 0 -23 -3t-23 -14
l-50 18l24 158h130l8 14h52z" />
    <glyph glyph-name="seveneighths" unicode="&#x215e;" horiz-adv-x="636" 
d="M463 730h84l-386 -740h-84zM588 251q0 -53 -53 -82q36 -19 52 -39.5t16 -47.5q0 -42 -33 -67t-99 -25q-54 0 -85 22t-31 62q0 29 15.5 50.5t49.5 39.5q-27 18 -38.5 35.5t-11.5 41.5q0 38 27.5 60t84.5 22t81.5 -20t24.5 -52zM456 142q-15 -11 -23 -26t-8 -37
q0 -17 9.5 -32t35.5 -15q7 0 16 1.5t16.5 5.5t13 11.5t5.5 18.5q0 22 -17.5 38.5t-47.5 34.5zM497 191q10 9 18 21.5t8 33.5q0 23 -11.5 32.5t-27.5 9.5q-18 0 -28 -10.5t-10 -26.5q0 -5 1 -12t5.5 -15t15 -16.5t29.5 -16.5zM167 438q0 -15 -10 -30.5t-36 -15.5
q-14 0 -26 8.5t-12 35.5q0 16 7.5 43t20.5 58t30.5 62t38.5 55h-92l-8 -44h-47v110h236v-42q-19 -17 -37.5 -45t-32.5 -61t-23 -68t-9 -66z" />
    <glyph glyph-name="less" unicode="&#x3c;" horiz-adv-x="491" 
d="M30 331v58l399 195v-93l-298 -131l298 -131v-94z" />
    <glyph glyph-name="greater" unicode="&#x3e;" horiz-adv-x="491" 
d="M62 135v94l298 131l-298 131v93l399 -195v-58z" />
    <glyph glyph-name="eth" unicode="&#xf0;" horiz-adv-x="582" 
d="M161 210q0 -75 31.5 -112.5t82.5 -37.5q64 0 93 37.5t29 112.5q0 74 -29.5 111t-92.5 37q-51 0 -82.5 -37t-31.5 -111zM418 351q-4 69 -29 131.5t-65 110.5l-133 -58l-29 64l117 52q-14 17 -26.5 30t-30.5 30l78 28l11 -9l11 -9t14 -13l22 -21l89 39l32 -63l-72 -32
q70 -86 103 -166.5t33 -170.5q0 -147 -73 -225.5t-210 -78.5q-54 0 -98 15.5t-74.5 44.5t-47 69.5t-16.5 91.5q0 49 15.5 89.5t43.5 69t67 44.5t87 16q55 0 102 -21t75 -58h4z" />
    <glyph glyph-name="ampersand" unicode="&#x26;" horiz-adv-x="756" 
d="M645 310q-1 -57 -19 -113.5t-48 -100.5q10 -14 27 -23t31 -9q45 0 73 41l37 -54q-43 -61 -125 -61q-35 0 -66 12t-60 34q-37 -26 -82 -36t-101 -10q-122 0 -191 52.5t-69 145.5q0 31 8.5 57t26.5 50t47 46t71 45q-55 88 -55 167q0 39 13 71t37.5 55.5t59.5 36t80 12.5
q84 0 130.5 -39.5t46.5 -101.5q0 -57 -39 -111.5t-124 -99.5l165 -213q12 23 25 61t15 86l-77 19v56h239v-56zM324 63q38 0 70 8.5t45 19.5l-185 237q-35 -20 -53.5 -57t-18.5 -82q0 -60 36.5 -93t105.5 -33zM265 576q0 -18 2 -33t7 -30.5t13 -32t21 -36.5q53 36 81.5 66.5
t28.5 71.5q0 35 -20 55.5t-59 20.5q-32 0 -53 -20t-21 -62z" />
    </font>
</defs>
</svg>
