<?xml version="1.0" standalone="no"?> <!DOCTYPE svg PUBLIC "-//W3C//DTD SVG 1.0//EN" "http://www.w3.org/TR/2001/REC-SVG-20010904/DTD/svg10.dtd" > <svg xmlns="http://www.w3.org/2000/svg" width="100%" height="100%">
<defs >
<font horiz-adv-x="626" ><font-face
    font-family="Poppins"
    units-per-em="1000"
    panose-1="2 0 0 0 0 0 0 0 0 0"
    ascent="1115"
    descent="-525"
    alphabetic="0" />
<missing-glyph horiz-adv-x="756" d="M241 625V76H516V625H241ZM160 0V701H596V0H160Z" />
<glyph unicode=" " glyph-name="null" horiz-adv-x="300" />
<glyph unicode="!" glyph-name="null" horiz-adv-x="425" d="M319 54T292 27T226 0T159 27T132 93T159 160T225 187T292 160T319 94ZM149 252L129 752H314L294 252H149Z" />
<glyph unicode="&quot;" glyph-name="null" horiz-adv-x="411" d="M243 579L230 800H371L358 579H243ZM53 579L40 800H181L168 579H53Z" />
<glyph unicode="#" glyph-name="null" horiz-adv-x="929" d="M867 449H717L684 296H802V142H651L621 0H461L491 142H325L295 0H135L165 142H15V296H198L231 449H80V603H264L293 740H453L424 603H590L619 740H779L750 603H867V449ZM524 296L557 449H391L358 296H524Z" />
<glyph unicode="$" glyph-name="null" horiz-adv-x="643" d="M587 209Q587 126 523 65T357 -6V-87H298V-6Q188 1 124 57T60 212H242Q248 145 298 132V289Q252 300 210 315T156 337T127 356T99 381T78 411Q60 441 60 496Q60 587 128 644T298 711V792H357V711Q462
705 523 654T587 498H411Q405 553 357 572V414Q457 386 488 371Q587 321 587 209ZM298 574Q240 563 240 511T298 434V574ZM357 132Q407 146 407 194T357 267V132Z" />
<glyph unicode="%" glyph-name="null" horiz-adv-x="814" d="M666 91T666 158T618 225T569 158T617 91ZM451 78T451 158T497 282T618 326T738 282T784 158T738 34T618 -10T498 34ZM132 0L517 704H682L297 0H132ZM245 479T245 546T197 613T148 546T196 479ZM30
466T30 546T76 670T197 714T317 670T363 546T317 422T197 378T77 422Z" />
<glyph unicode="&amp;" glyph-name="null" horiz-adv-x="700" d="M257 -7Q162 -7 96 59T30 212T75 359T188 434Q141 506 141 558Q141 633 195 686T346 740T497 691T553 576Q553 540 539 512H377Q388 529 388 549T377 582T347 594T318 582T306 551T326 504L700
0H503L441 89Q411 46 362 20T257 -7ZM172 185T197 160T257 134T318 159T344 220T319 281T258 306T197 281T172 221Z" />
<glyph unicode="&apos;" glyph-name="null" horiz-adv-x="221" d="M53 579L40 800H181L168 579H53Z" />
<glyph unicode="(" glyph-name="null" horiz-adv-x="480" d="M217 -94T142 60T67 402T142 744T339 991H508V975Q232 749 232 402T508 -171V-187H339Q217 -94 142 60Z" />
<glyph unicode=")" glyph-name="null" horiz-adv-x="482" d="M265 899T340 745T415 403T340 61T143 -187H-26V-171Q250 55 250 402T-26 975V991H143Q265 899 340 745Z" />
<glyph unicode="*" glyph-name="null" horiz-adv-x="534" d="M329 740L303 608L407 695L463 593L340 550L463 508L403 402L303 490L328 360H211L235 490L136 401L74 509L197 552L75 592L132 695L236 608L210 740H329Z" />
<glyph unicode="+" glyph-name="null" horiz-adv-x="650" d="M580 427V272H407V95H243V272H70V427H243V605H407V427H580Z" />
<glyph unicode="," glyph-name="null" horiz-adv-x="241" d="M30 106H171Q215 5 194 -84Q183 -128 147 -156T51 -184V-119Q78 -119 90 -107T103 -63V-47H30V106Z" />
<glyph unicode="-" glyph-name="null" horiz-adv-x="580" d="M70 280V422H510V280H70Z" />
<glyph unicode="." glyph-name="null" horiz-adv-x="257" d="M222 54T195 27T129 0T62 27T35 93T62 160T128 187T195 160T222 94Z" />
<glyph unicode="/" glyph-name="null" horiz-adv-x="453" d="M10 -187L278 950H443L175 -187H10Z" />
<glyph unicode="0" glyph-name="null" horiz-adv-x="652" d="M250 725T326 725T457 698T545 621T592 508T607 364T592 221T545 107T458 30T326 3T195 30T107 107T60 220T45 364T60 507T107 621T194 698ZM355 565T326 565T276 554T243 525T224 480T215 426T213
364T215 302T224 248T242 203T275 175T326 163T376 174T409 203T428 248T437 302T439 364T437 426T428 480T410 525T377 553Z" />
<glyph unicode="1" glyph-name="null" horiz-adv-x="421" d="M149 0V551H28V710H326V0H149Z" />
<glyph unicode="2" glyph-name="null" horiz-adv-x="571" d="M39 10V137Q66 161 115 203T191 268T254 327T308 388Q355 453 355 501Q355 586 280 586Q244 586 223 561T202 487H37Q37 607 106 668T289 730T465 666T528 510Q528 441 498 389Q480 359 467 338T424
286T380 241T329 193T281 149H541V10H39Z" />
<glyph unicode="3" glyph-name="null" horiz-adv-x="605" d="M296 598Q227 598 220 524H54Q54 629 121 686T301 744T475 689T537 549Q537 482 505 440T438 384V380Q550 337 550 207Q550 109 485 53T304 -4T115 55T42 231H208Q209 187 233 162T299 136T363 159T385
224T355 288T257 309H225V448H257Q371 448 371 528Q371 560 351 579T296 598Z" />
<glyph unicode="4" glyph-name="null" horiz-adv-x="677" d="M397 278V526L239 278H397ZM385 0V130H49V268L365 720H556V278H638V130H556V0H385Z" />
<glyph unicode="5" glyph-name="null" horiz-adv-x="650" d="M92 731H548V581H247V453Q292 493 361 493T479 471T552 411Q601 338 601 254Q601 137 532 69T343 0T154 57T75 206H244Q249 177 275 159T345 140T412 169T436 248T412 324T346 351T284 334T257 290H92V731Z" />
<glyph unicode="6" glyph-name="null" horiz-adv-x="637" d="M418 280T394 309T323 339T250 313T224 241T253 167T326 139T394 166T418 237ZM322 607Q212 607 211 419Q235 450 277 465T361 480Q461 480 522 418T584 244T518 66T339 0Q193 0 126 89T59 370Q59 747
325 747Q435 747 494 688T565 539H406Q392 607 322 607Z" />
<glyph unicode="7" glyph-name="null" horiz-adv-x="560" d="M41 721H523V595L263 0H78L351 581H41V721Z" />
<glyph unicode="8" glyph-name="null" horiz-adv-x="648" d="M422 269T397 296T324 323T248 297T219 227T246 154T322 126T396 154T422 226ZM410 568T387 591T325 614T263 591T238 529T263 466T324 442T385 466T410 529ZM71 554Q71 636 137 695T324 754T510 695T576
553Q576 449 483 397Q594 343 594 216Q594 111 517 49T325 -14T132 49T54 216Q54 343 165 397Q71 449 71 554Z" />
<glyph unicode="9" glyph-name="null" horiz-adv-x="637" d="M228 467T251 439T320 410T390 435T415 507T390 579T321 605T253 577T228 508ZM332 140Q383 140 406 180T429 314Q410 296 373 283T295 270Q190 270 127 327T64 498T131 679T314 745Q470 745 528 643Q556
592 568 528T580 380T574 241T550 139T503 62Q443 0 322 0T142 64T82 224H241Q253 140 332 140Z" />
<glyph unicode=":" glyph-name="null" horiz-adv-x="320" d="M254 453T227 426T161 399T94 426T67 492T94 559T160 586T227 559T254 493ZM254 54T227 27T161 0T94 27T67 93T94 160T160 187T227 160T254 94Z" />
<glyph unicode=";" glyph-name="null" horiz-adv-x="372" d="M288 453T261 426T195 399T128 426T101 492T128 559T194 586T261 559T288 493ZM113 106H254Q298 5 276 -84Q266 -128 230 -156T134 -184V-119Q161 -119 173 -107T186 -63V-47H113V106Z" />
<glyph unicode="&lt;" glyph-name="null" horiz-adv-x="553" d="M278 350L482 129H268L64 350L268 571H482L278 350Z" />
<glyph unicode="=" glyph-name="null" horiz-adv-x="780" d="M110 400V554H670V400H110ZM110 145V299H670V145H110Z" />
<glyph unicode="&gt;" glyph-name="null" horiz-adv-x="560" d="M64 129L268 350L64 571H278L482 350L278 129H64Z" />
<glyph unicode="?" glyph-name="null" horiz-adv-x="651" d="M224 0T197 27T170 93T197 160T263 187T330 160T357 94T330 27T264 0ZM88 638T150 699T321 761T497 703T564 543T507 395T340 347V252H179V458H246Q324 458 361 476T398 545Q398 579 379 600T325 621T271
601T251 545H90Q88 638 150 699Z" />
<glyph unicode="@" glyph-name="null" horiz-adv-x="1277" d="M35 231Q35 362 90 473T238 658T457 773T723 814Q958 814 1100 693T1242 358Q1242 204 1144 99T918 -7Q775 -7 756 116Q686 -7 562 -7Q462 -7 397 74T347 280T457 484T672 563T861 496T913 310L897
188Q891 141 930 141Q974 141 1021 201T1068 359Q1068 505 969 593T703 681Q562 681 449 621T272 458T209 231Q209 66 314 -33T621 -133L588 -266Q336 -266 186 -129T35 231ZM694 416T648 416T562 380T514 278T535 177T611 141T698 177T746 279Q755 345 725 380Z"
/>
<glyph unicode="A" glyph-name="null" horiz-adv-x="713" d="M521 0L482 118H230L191 0H9L253 704H461L704 0H521ZM273 248H439L356 498L273 248Z" />
<glyph unicode="B" glyph-name="null" horiz-adv-x="674" d="M75 702H380Q487 702 550 650T614 518Q614 399 475 357Q546 347 588 298T630 183Q630 99 569 50T397 0H75V702ZM246 572V420H358Q395 420 417 439T440 495T418 552T358 572H246ZM246 130H375Q410 130
433 151T456 209T434 268T377 290H246V130Z" />
<glyph unicode="C" glyph-name="null" horiz-adv-x="764" d="M34 197T34 353T138 610T394 712Q511 712 602 650T729 478H525Q485 555 397 555T259 500T208 353T258 206T397 151T525 228H729Q693 118 602 56T394 -6Q243 -6 139 95Z" />
<glyph unicode="D" glyph-name="null" horiz-adv-x="739" d="M246 130H322Q420 130 476 190T532 351T476 512T322 572H246V130ZM322 702Q490 702 598 605T706 352T598 98T322 0H75V702H322Z" />
<glyph unicode="E" glyph-name="null" horiz-adv-x="572" d="M500 704V574H246V423H470V293H246V130H500V0H75V704H500Z" />
<glyph unicode="F" glyph-name="null" horiz-adv-x="575" d="M75 0V702H532V572H246V421H460V291H246V0H75Z" />
<glyph unicode="G" glyph-name="null" horiz-adv-x="764" d="M34 197T34 353T138 610T394 712Q511 712 602 650T729 478H525Q485 555 397 555T259 500T208 353T258 206T394 151Q455 151 493 181T545 263H347V393H729V263Q710 167 624 84Q583 44 523 19T394 -6Q243
-6 139 95Z" />
<glyph unicode="H" glyph-name="null" horiz-adv-x="763" d="M517 702H688V0H517V291H246V0H75V702H246V421H517V702Z" />
<glyph unicode="I" glyph-name="null" horiz-adv-x="321" d="M75 0V702H246V0H75Z" />
<glyph unicode="J" glyph-name="null" horiz-adv-x="594" d="M323 224V702H494V224Q494 115 429 54T261 -7T94 53T29 224H199Q200 184 217 165T261 146T305 165T323 224Z" />
<glyph unicode="K" glyph-name="null" horiz-adv-x="720" d="M246 0H75V702H246V394L478 702H702L413 351L702 0H482L246 310V0Z" />
<glyph unicode="L" glyph-name="null" horiz-adv-x="479" d="M75 702H246V130H459V0H75V702Z" />
<glyph unicode="M" glyph-name="null" horiz-adv-x="945" d="M870 702V0H699V396L536 0H409L246 396V0H75V702H271L473 218L674 702H870Z" />
<glyph unicode="N" glyph-name="null" horiz-adv-x="778" d="M532 704H703V0H532L246 443V0H75V704H246L532 261V704Z" />
<glyph unicode="O" glyph-name="null" horiz-adv-x="788" d="M579 261T579 353T529 500T394 555T259 500T208 353T258 206T393 151T528 206ZM34 197T34 353T138 610T394 712T649 611T753 353T649 95T394 -7T139 95Z" />
<glyph unicode="P" glyph-name="null" horiz-adv-x="638" d="M610 487Q610 416 559 350Q532 316 479 295T352 273H246V0H75V702H352Q474 702 542 639T610 487ZM246 403H352Q391 403 413 426T436 486T413 548T352 572H246V403Z" />
<glyph unicode="Q" glyph-name="null" horiz-adv-x="794" d="M394 -7Q243 -7 139 95T34 353T138 610T394 712T649 611T753 353Q753 265 718 192T620 69L763 -115H556L471 1Q431 -7 394 -7ZM208 445T208 353T258 206T393 151T528 206T579 353T529 500T394 555T259 500Z" />
<glyph unicode="R" glyph-name="null" horiz-adv-x="668" d="M246 273V0H75V702H352Q474 702 542 639T610 487Q610 426 573 368T452 286L624 0H424L266 273H246ZM246 572V403H352Q391 403 413 426T436 486T413 548T352 572H246Z" />
<glyph unicode="S" glyph-name="null" horiz-adv-x="647" d="M281 577T261 560T240 511T259 460T308 430T376 410T451 387T518 353T568 297T587 209Q587 120 515 57T324 -7T133 50T60 212H242Q249 128 328 128Q365 128 386 147T407 197T388 246T339 276T271 296T196
320T129 353T79 409T60 496Q60 594 133 653T319 712T503 661T576 498H390Q386 536 366 556T313 577Z" />
<glyph unicode="T" glyph-name="null" horiz-adv-x="608" d="M27 572V702H581V572H389V0H218V572H27Z" />
<glyph unicode="U" glyph-name="null" horiz-adv-x="731" d="M72 283V702H243V283Q243 220 274 186T365 152T457 186T489 283V702H660V283Q660 190 617 123T507 24T362 -7Q240 -7 156 69T72 283Z" />
<glyph unicode="V" glyph-name="null" horiz-adv-x="726" d="M256 0L7 702H189L363 167L537 702H719L470 0H256Z" />
<glyph unicode="W" glyph-name="null" horiz-adv-x="1045" d="M854 702H1038L842 0H646L523 445L401 0H205L6 702H189L311 197L436 702H630L750 205L854 702Z" />
<glyph unicode="X" glyph-name="null" horiz-adv-x="736" d="M687 702L465 350L686 0H492L363 204L244 0H50L271 351L50 702H244L373 497L493 702H687Z" />
<glyph unicode="Y" glyph-name="null" horiz-adv-x="687" d="M429 0H258V226L15 702H209L344 385L478 702H672L429 226V0Z" />
<glyph unicode="Z" glyph-name="null" horiz-adv-x="596" d="M546 702V572L247 130H546V0H50V130L349 572H50V702H546Z" />
<glyph unicode="[" glyph-name="null" horiz-adv-x="510" d="M120 -188V950H420V811H280V-49H420V-188H120Z" />
<glyph unicode="\" glyph-name="null" horiz-adv-x="802" d="M348 950L616 -187H451L183 950H348Z" />
<glyph unicode="]" glyph-name="null" horiz-adv-x="508" d="M389 950V-188H89V-49H229V811H89V950H389Z" />
<glyph unicode="^" glyph-name="null" horiz-adv-x="709" d="M507 165L355 506L202 165H30L272 704H438L679 165H507Z" />
<glyph unicode="_" glyph-name="null" horiz-adv-x="780" d="M85 -205V-41H705V-205H85Z" />
<glyph unicode="`" glyph-name="null" horiz-adv-x="291" d="M10 697V830L251 714V596L10 697Z" />
<glyph unicode="a" glyph-name="null" horiz-adv-x="698" d="M452 213T452 279T415 380T330 416T245 380T208 278T245 177T330 141T415 177ZM34 153T34 278T108 483T288 564T452 485V558H623V0H452V81Q390 -7 286 -7T108 73Z" />
<glyph unicode="b" glyph-name="null" horiz-adv-x="698" d="M490 212T490 278T453 380T368 416T283 381T246 279T283 177T368 141T453 176ZM246 485Q303 564 409 564T590 484T664 278T590 73T411 -7T246 81V0H75V740H246V485Z" />
<glyph unicode="c" glyph-name="null" horiz-adv-x="600" d="M34 149T34 279T111 486T312 564Q414 564 485 514T579 369H394Q370 419 316 419T235 381T208 279T234 178T312 139Q344 139 362 150T394 189H579Q556 99 484 46T312 -7Q189 -7 112 71Z" />
<glyph unicode="d" glyph-name="null" horiz-adv-x="698" d="M452 213T452 279T415 380T330 416T245 380T208 278T245 177T330 141T415 177ZM34 153T34 278T108 483T288 564T452 485V740H623V0H452V81Q390 -7 286 -7T108 73Z" />
<glyph unicode="e" glyph-name="null" horiz-adv-x="632" d="M312 -7Q190 -7 112 71T34 280T111 487T312 564T516 488T597 277Q597 248 593 223H209Q214 186 242 163T302 139T351 145T374 158T394 180H579Q555 96 483 45T312 -7ZM415 369T385 393T314 418T245
394T210 330H419Q415 369 385 393Z" />
<glyph unicode="f" glyph-name="null" horiz-adv-x="336" d="M319 558V416H248V0H77V416H25V558H77V579Q77 685 133 734T311 783V638Q277 638 263 625T248 579V558H319Z" />
<glyph unicode="g" glyph-name="null" horiz-adv-x="698" d="M34 153T34 278T108 483T288 564T452 485V558H623V3Q623 -114 559 -192Q527 -232 472 -254T343 -276Q215 -276 140 -224T55 -65H223Q247 -128 343 -128Q390 -128 421 -97T452 3V81Q390 -7 286 -7T108
73ZM452 213T452 279T415 380T330 416T245 380T208 278T245 177T330 141T415 177Z" />
<glyph unicode="h" glyph-name="null" horiz-adv-x="700" d="M246 740V476Q299 564 415 564Q511 564 570 500T630 326V0H460V303Q460 357 432 386T353 416T275 387T246 303V0H75V740H246Z" />
<glyph unicode="i" glyph-name="null" horiz-adv-x="321" d="M202 592T160 592T89 621T60 692T89 764T160 793T231 764T260 693T231 621ZM75 0V558H246V0H75Z" />
<glyph unicode="j" glyph-name="null" horiz-adv-x="321" d="M75 558H246V-82Q246 -183 195 -224T49 -266H-18V-121H23Q75 -121 75 -82V558ZM202 592T160 592T89 621T60 692T89 764T160 793T231 764T260 693T231 621Z" />
<glyph unicode="k" glyph-name="null" horiz-adv-x="653" d="M246 0H75V740H246V325L419 558H649L410 273L649 0H422L246 223V0Z" />
<glyph unicode="l" glyph-name="null" horiz-adv-x="321" d="M75 0V740H246V0H75Z" />
<glyph unicode="m" glyph-name="null" horiz-adv-x="1084" d="M246 558V476Q299 564 415 564Q477 564 525 536T601 456Q632 505 681 534T792 564Q894 564 954 501T1014 326V0H844V303Q844 357 816 386T737 416T659 387T630 303V0H460V303Q460 357 432 386T353
416T275 387T246 303V0H75V558H246Z" />
<glyph unicode="n" glyph-name="null" horiz-adv-x="700" d="M246 558V476Q299 564 415 564Q511 564 570 500T630 326V0H460V303Q460 357 432 386T353 416T275 387T246 303V0H75V558H246Z" />
<glyph unicode="o" glyph-name="null" horiz-adv-x="653" d="M444 211T444 279T409 382T326 418T244 383T209 279T244 175T328 139T410 175ZM35 151T35 280T119 486T327 564T534 487T618 280T535 72T328 -7T120 72Z" />
<glyph unicode="p" glyph-name="null" horiz-adv-x="698" d="M490 212T490 278T453 380T368 416T283 381T246 279T283 177T368 141T453 176ZM246 485Q303 564 409 564T590 484T664 278T590 73T411 -7T246 81V-266H75V558H246V485Z" />
<glyph unicode="q" glyph-name="null" horiz-adv-x="698" d="M452 213T452 279T415 380T330 416T245 380T208 278T245 177T330 141T415 177ZM34 153T34 278T108 483T288 564T452 485V558H623V-266H452V81Q390 -7 286 -7T108 73Z" />
<glyph unicode="r" glyph-name="null" horiz-adv-x="424" d="M246 558V454Q306 564 406 564V390H364Q305 390 276 362T246 264V0H75V558H246Z" />
<glyph unicode="s" glyph-name="null" horiz-adv-x="555" d="M37 390Q37 464 100 514T270 564T444 515T514 381H339Q336 410 319 420T268 431Q201 431 201 390Q201 353 283 339Q366 325 434 296Q469 282 492 250T516 170Q516 92 449 43T280 -7T110 39T36 177H211Q218
126 283 126Q313 126 332 140T352 176T320 211T241 233T149 255T70 302T37 390Z" />
<glyph unicode="t" glyph-name="null" horiz-adv-x="415" d="M312 145H373V0H286Q192 0 141 41T89 184V416H37V558H89V694H260V558H372V416H260V184Q260 145 312 145Z" />
<glyph unicode="u" glyph-name="null" horiz-adv-x="700" d="M454 558H625V0H454V82Q401 -6 285 -6Q189 -6 130 58T70 232V558H240V255Q240 201 268 172T347 142T425 171T454 255V558Z" />
<glyph unicode="v" glyph-name="null" d="M4 558H186L313 143L440 558H622L424 0H202L4 558Z" />
<glyph unicode="w" glyph-name="null" horiz-adv-x="866" d="M702 558H863L696 0H512L434 330L355 0H171L4 558H175L262 166L348 558H529L615 166L702 558Z" />
<glyph unicode="x" glyph-name="null" horiz-adv-x="549" d="M546 558L366 288L546 0H354L263 145L173 0H4L185 270L4 558H196L287 413L377 558H546Z" />
<glyph unicode="y" glyph-name="null" horiz-adv-x="641" d="M221 11L4 558H198L322 193L458 558H637L281 -266H102L221 11Z" />
<glyph unicode="z" glyph-name="null" horiz-adv-x="515" d="M465 558V417L251 141H465V0H50V141L264 417H50V558H465Z" />
<glyph unicode="{" glyph-name="null" horiz-adv-x="527" d="M345 252Q345 221 337 160T329 61Q329 -38 367 -108T465 -201V-217H291Q251 -198 219 -160Q159 -87 159 44Q159 80 167 142T176 241T154 310T79 342V402Q131 403 153 434T176 502T168 602T159 714T173
815T212 894Q251 942 291 961H465V945Q405 923 367 853T329 683Q329 645 337 584T345 492Q345 393 239 373V371Q345 351 345 252Z" />
<glyph unicode="|" glyph-name="null" horiz-adv-x="381" d="M105 815H276V-129H105V815Z" />
<glyph unicode="}" glyph-name="null" horiz-adv-x="511" d="M183 492Q183 523 191 584T199 683Q199 782 161 852T63 945V961H237Q277 942 309 904Q369 831 369 700Q369 664 361 602T352 503T374 434T449 402V342Q397 341 375 310T352 242T360 142T369 30T355
-71T316 -150Q277 -198 237 -217H63V-201Q123 -179 161 -109T199 61Q199 99 191 160T183 252Q183 351 289 371V373Q183 393 183 492Z" />
<glyph unicode="~" glyph-name="null" horiz-adv-x="631" d="M224 425Q272 425 331 392T416 359Q470 359 479 425H601Q566 208 406 208Q358 208 299 241T214 274Q160 274 150 208H30Q65 425 224 425Z" />
</font>
</defs>
</svg>
